Horror

Imago Mortis 2009 iTALiAN DVDRip XviD Republic photoshopresources ro

  • Download 5x Faster
  • Download torrent
  • Direct Download
  • Rate this torrent +  |  -
Imago Mortis 2009 iTALiAN DVDRip XviD Republic photoshopresources ro

Free and Direct Download with Usenet 300GB+ free


Torrent info

Name:Imago Mortis 2009 iTALiAN DVDRip XviD Republic photoshopresources ro

Total Size: 699.94 MB

Magnet: Magnet Link

Seeds: 3

Leechers: 3

Stream: Watch Online @ Movie4u

Last Updated: 2010-11-17 11:57:42 (Update Now)

Torrent added: 2009-08-27 21:45:52




Torrent Files List


Imago.Mortis.2009.iTALiAN.DVDRip.XviD-Republic.avi (Size: 699.94 MB) (Files: 2)

 Imago.Mortis.2009.iTALiAN.DVDRip.XviD-Republic.avi

699.94 MB

 republic-imortis.nfo

2.10 KB
 

Announce URL: http://tracker.openbittorrent.com/announce

Torrent description

http://www.photoshopresources.ro/

Format : AVI
Format/Info : Audio Video Interleave
File size : 700 MiB
Duration : 1h 36mn
Overall bit rate : 1 010 Kbps
Writing application : VirtualDubMod 1.5.10.2 (build 2542/release)
Writing library : VirtualDubMod build 2542/release

Video
Format : MPEG-4 Visual
Format profile : Streaming [email protected]
Format settings, BVOP : Yes
Format settings, QPel : No
Format settings, GMC : No warppoints
Format settings, Matrix : Default
Codec ID : XVID
Codec ID/Hint : XviD
Duration : 1h 36mn
Bit rate : 866 Kbps
Width : 608 pixels
Height : 256 pixels
Display aspect ratio : 2.35
Frame rate : 25.000 fps
Resolution : 24 bits
Colorimetry : 4:2:0
Scan type : Progressive
Bits/(Pixel*Frame) : 0.223
Stream size : 600 MiB (86%)
Writing library : XviD 1.1.2 (UTC 2006-11-01)

Audio
Format : MPEG Audio
Format version : Version 1
Format profile : Layer 3
Codec ID : 55
Codec ID/Hint : MP3
Duration : 1h 36mn
Bit rate mode : Variable
Bit rate : 131 Kbps
Nominal bit rate : 128 Kbps
Channel(s) : 2 channels
Sampling rate : 48.0 KHz
Resolution : 16 bits
Stream size : 90.6 MiB (13%)
Alignment : Aligned on interleaves
Interleave, duration : 24 ms (0.60 video frame)
Interleave, preload duration : 493 ms
Writing library : LAME3.90.
Encoding settings : ABR



related torrents

Torrent name

health leech seeds Size
 

comments (0)

Main Menu