Horror

ilsa The Wicked Warden (Greta Haus ohne Männer) (UNCUT) [DVDRip] [KooKoo] [h33t]

  • Download 5x Faster
  • Download torrent
  • Direct Download
  • Rate this torrent +  |  -


Torrent info

Name:ilsa The Wicked Warden (Greta Haus ohne Männer) (UNCUT) [DVDRip] [KooKoo] [h33t]

Total Size: 700.52 MB

Magnet: Magnet Link

Seeds: 0

Leechers: 0

Stream: Watch Online @ Movie4u

Last Updated: 2015-12-27 23:47:03 (Update Now)

Torrent added: 2009-08-27 21:45:38





Torrent Files List


ilsa-The Wicked Warden (Greta Haus ohne Männer) (UNCUT) [DVDRip] [KooKoo] [h33t].avi (Size: 700.52 MB) (Files: 7)

 ilsa-The Wicked Warden (Greta Haus ohne Männer) (UNCUT) [DVDRip] [KooKoo] [h33t].avi

700.25 MB

 KooKoo.txt

15.34 KB

 Poster

  ilsa_wicked_warden_poster1.jpg

18.88 KB

  ilsa_wicked_warden_poster3.jpg

13.58 KB

 Screenshots

  thumbs20080611210814.jpg

224.87 KB

 Torrent downloaded from Demonoid.com.txt

0.05 KB

 tracked_by_h33t_com.txt

0.02 KB
 

tracker

leech seeds
 

Torrent description

Greta - Haus ohne Männer (1977)
-----------------------------------------------------------------------------------------------------------------------------
Genre: Exploitation, Grindhouse
-----------------------------------------------------------------------------------------------------------------------------
Synopsis:
-----------------------------------------------------------------------------------------------------------------------------
Prolific Spanish sexploitation legend Jess Franco\'s entry into the Ilsa sweepstakes is actually a knock-off called Greta, the Mad Butcher. A
red-tressed Dyanne Thorne is the (what else?) sadistic warden of a Latin American political prison posing as an institution for sexually disturbed
women, but despite the name change she\'s still the arch, statuesque Joan Crawfordesque dominatrix with big hair, a bigger bust, and a Nazi
growl. Franco muse Lina Romay is Greta\'s smoldering, often naked sex slave, a willing masochist who falls in love with a new prisoner (who just
happens to be an undercover agent searching for her missing sister) and finally turns on Greta in a ferocious cannibalistic revolt. In between are
the usual women-in-prison tropes (catfights, long showers, floggings, and electroshock interrogations) and a few new twists, including a
perverted game of pincushion sex and a violent gang rape organized in the spirit of \"experimental therapy.\" It doesn\'t quite reach the threshold
of violent sadism established by Ilsa, She Wolf of the SS, but it\'s no Girl Scout picnic either. Franco brings his unique sensibility to the Ilsa genre
and provides a modicum of craft to the film, making it by default the most accomplished of the otherwise bluntly directed series.
-----------------------------------------------------------------------------------------------------------------------------
IMDB URL: http://www.imdb.com/title/tt0076112/
-----------------------------------------------------------------------------------------------------------------------------
DVD source Information:
# Format: Anamorphic, Color, DVD-Video, Full Screen, Widescreen, NTSC
# Language: English
# Region: All Regions
# Aspect Ratio: 1.66:1
# Number of discs: 1
# Rating:x
# Studio: Starz / Anchor Bay
# DVD Release Date: July 11, 2000
# Run Time: 94 minutes
http://www.amazon.com/Ilsa-Wicked-Sandra-L-Brennan/dp/6305808155/ref=sr_1_1?ie=UTF8&s=dvd&qid=1213233458&sr=1-1
-----------------------------------------------------------------------------------------------------------------------------
File Verified With MediaInfo:
General
Complete name: ilsa-The Wicked Warden (Greta Haus ohne Männer) (UNCUT) [DVDRip] [KooKoo] [h33t].avi
Format: AVI
Format/Info: Audio Video Interleave
File size: 700 MiB
Duration: 1h 34mn
Overal bit rate: 1039 Kbps
Writing application: VirtualDubMod 1.5.4.1 (build 2178/release)
Writing library: VirtualDubMod build 2178/release
IAS1: English
-----------------------------------------------------------------------------------------------------------------------------
Video
Format: MPEG-4 Visual
Format profile: [email protected]
Format settings, BVOP: Yes
Format settings, QPel: No
Format settings, GMC: No warppoints
Format settings, Matrix: Default
Muxing mode: Packet Bitstream
Codec ID: XVID
Codec ID/Hint: XviD
Duration: 1h 34mn
Bit rate: 892 Kbps
Width: 640 pixels
Height: 384 pixels
Display aspect ratio: 1.667
Frame rate: 23.976 fps
Resolution: 8 bits
Colorimetry: 4:2:0
Scan type: Progressive
Bits/(Pixel*Frame): 0.151
Stream size: 601 MiB
Writing library: XviD 1.1.0 Beta2 (UTC 2005-04-04)
-----------------------------------------------------------------------------------------------------------------------------
Audio
Format: MPEG Audio
Format version: Version 1
Format profile: Layer 3
Codec ID: 55
Codec ID/Hint: MP3
Duration: 1h 34mn
Bit rate mode: Variable
Bit rate: 134 Kbps
Minimum bit rate: 128 Kbps
Channel(s): 2 channels
Sampling rate: 48.0 KHz
Resolution: 16 bits
Stream size: 90.5 MiB
Writing library: LAME3.96r
Encoding settings: ABR
-----------------------------------------------------------------------------------------------------------------------------

hhhhhhh 333333333333333 333333333333333 tttt
h:::::h 3:::::::::::::::33 3:::::::::::::::33 ttt:::t
h:::::h 3::::::33333::::::33::::::33333::::::3 t:::::t
h:::::h 3333333 3:::::33333333 3:::::3 t:::::t
h::::h hhhhh 3:::::3 3:::::3ttttttt:::::ttttttt [email protected]
h::::hh:::::hhh 3:::::3 3:::::3t:::::::::::::::::t
h::::::::::::::hh 33333333:::::3 33333333:::::3 t:::::::::::::::::t
h:::::::hhh::::::h 3:::::::::::3 3:::::::::::3 tttttt:::::::tttttt
h::::::h h::::::h 33333333:::::3 33333333:::::3 t:::::t
h:::::h h:::::h 3:::::3 3:::::3 t:::::t
h:::::h h:::::h 3:::::3 3:::::3 t:::::t
h:::::h h:::::h 3:::::3 3:::::3 t:::::t tttttt
h:::::h h:::::h3333333 3:::::33333333 3:::::3 t::::::tttt:::::t
h:::::h h:::::h3::::::33333::::::33::::::33333::::::3 tt::::::::::::::t
h:::::h h:::::h3:::::::::::::::33 3:::::::::::::::33 tt:::::::::::tt
hhhhhhh hhhhhhh 333333333333333 333333333333333 ttttttttttt
---------------------------------------------------------------------------------------------------

related torrents

Torrent name

health leech seeds Size
 

comments (0)

Main Menu