Horror

Ilsa She Wolf Of The SS (UNCUT) [DVDRip] [KooKoo] [h33t]

  • Download 5x Faster
  • Download torrent
  • Direct Download
  • Rate this torrent +  |  -
Ilsa She Wolf Of The SS (UNCUT) [DVDRip] [KooKoo] [h33t]

Anonymous and free Direct Download 300GB+


Torrent info

Name:Ilsa She Wolf Of The SS (UNCUT) [DVDRip] [KooKoo] [h33t]

Total Size: 700.56 MB

Magnet: Magnet Link

Seeds: 0

Leechers: 0

Stream: Watch Online @ Movie4u

Last Updated: 0000-00-00 00:00:00 (Update Now)

Torrent added: 2009-08-27 21:45:36



VPN For Torrents

Torrent Files List


Ilsa-She Wolf Of The SS (UNCUT) [DVDRip] [KooKoo] [h33t].avi (Size: 700.56 MB) (Files: 5)

 Ilsa-She Wolf Of The SS (UNCUT) [DVDRip] [KooKoo] [h33t].avi

700.25 MB

 KooKoo.txt

39.42 KB

 Poster

  shewolf.jpg

61.11 KB

 Screenshots

  thumbs20080611053252.jpg

218.70 KB

 tracked_by_h33t_com.txt

0.02 KB
 

Announce URL:

Torrent description

Ilsa, She Wolf of the SS (1975)
-----------------------------------------------------------------------------------------------------------------------------
Genre: Exploitation, Grindhouse
-----------------------------------------------------------------------------------------------------------------------------
Synopsis:
-----------------------------------------------------------------------------------------------------------------------------
Dyanne Thorne stars as Ilsa, the insatiable Nazi commandant whose sexual appetites are matched only
by her lust for brutality. But as the Allied Forced advance into Germany, her depraved desires and
sadistic experiments reach new heights of horror. What will be the final solution to Ilsa\'s reign of terror --
the desperate actions of the Reich...or the heinous revenge of the damned?

Ilsa: She Wolf Of The SS is a film so controversial that even legendary exploitation producer David F.
Friedman had his name removed! Shot in secrecy on the sets of Hogan\'s Heroes, this oft-banned epic
is still as shocking today as it was over 25 years ago. Now fully restored from the original negative, this
first film in the notorious Ilsa series is presented completely uncut and uncensored for the first time ever!
-----------------------------------------------------------------------------------------------------------------------------
IMDB URL: http://www.imdb.com/title/tt0071650/
-----------------------------------------------------------------------------------------------------------------------------
DVD source Information:
http://www.dvdempire.com/Exec/v4_item.asp?userid=99366345318421&item_id=14169&searchID=6791027
-----------------------------------------------------------------------------------------------------------------------------
File Verified With MediaInfo:
General
Complete name: Ilsa-She Wolf Of The SS (UNCUT) [DVDRip] [KooKoo] [h33t].avi
Format: AVI
Format/Info: Audio Video Interleave
File size: 700 MiB
Duration: 1h 36mn
Overal bit rate: 1019 Kbps
Writing application: VirtualDubMod 1.5.4.1 (build 2178/release)
Writing library: VirtualDubMod build 2178/release
IAS1: English
-----------------------------------------------------------------------------------------------------------------------------
Video
Format: MPEG-4 Visual
Format profile: [email protected]
Format settings, BVOP: Yes
Format settings, QPel: No
Format settings, GMC: No warppoints
Format settings, Matrix: Default
Muxing mode: Packet Bitstream
Codec ID: XVID
Codec ID/Hint: XviD
Duration: 1h 36mn
Bit rate: 870 Kbps
Width: 640 pixels
Height: 384 pixels
Display aspect ratio: 1.667
Frame rate: 23.976 fps
Resolution: 8 bits
Colorimetry: 4:2:0
Scan type: Progressive
Bits/(Pixel*Frame): 0.148
Stream size: 598 MiB
Writing library: XviD 1.1.0 Beta2 (UTC 2005-04-04)
-----------------------------------------------------------------------------------------------------------------------------
Audio
Format: MPEG Audio
Format version: Version 1
Format profile: Layer 3
Codec ID: 55
Codec ID/Hint: MP3
Duration: 1h 36mn
Bit rate mode: Variable
Bit rate: 135 Kbps
Minimum bit rate: 128 Kbps
Channel(s): 2 channels
Sampling rate: 48.0 KHz
Resolution: 16 bits
Stream size: 93.1 MiB
Writing library: LAME3.96r
Encoding settings: ABR

related torrents

Torrent name

health leech seeds Size
 


comments (0)

Main Menu