Horror

I Spit On Your Grave (1978) REPACK (AC 3 Audio)

  • Download 5x Faster
  • Download torrent
  • Direct Download
  • Rate this torrent +  |  -
I Spit On Your Grave (1978) REPACK (AC 3 Audio)

Anonymous and Free Direct Download 300GB+


Torrent info

Name:I Spit On Your Grave (1978) REPACK (AC 3 Audio)

Total Size: 1.14 GB

Magnet: Magnet Link

Seeds: 0

Leechers: 0

Stream: Watch Online @ Movie4u

Last Updated: 2010-09-29 14:25:42 (Update Now)

Torrent added: 2009-08-27 21:41:10



VPN For Torrents

Torrent Files List


ISOYG.avi (Size: 1.14 GB) (Files: 1)

 ISOYG.avi

1.14 GB
 

Announce URL: http://tracker.thepiratebay.org/announce

Torrent description

This is a complete re-working of this DVDRip, ripped again from scratch:

Original here:
http://www.mininova.org/tor/1966564

Changes:
Aspect ratio has been corrected (not much needed), Bitrate increased improving picture quality, XviD this time not DivX (no big deal), and AC-3 audio whereas the previous one was mp3 format so a big improvement there. Basically ripped in a totally different way with better results all round this time. Original not nuked as still good quality so keep seeding/leeching that as required. I'll be re-doing all my early movies in a similar way as and when I get time.

_______________________________________________________________________



I Spit On Your Grave AKA Day Of The Woman (1978)
------------------------------------------------

The film follows Jennifer, a writer who is working on a new novel and needs to get out of the city to finish it. She hires a riverside apartment in upstate New York to finish her novel, attracting the attention of a number of rowdy male locals. They catch Jennifer one day and strip her naked for the village idiot (Matthew) and rape her. Jennifer is later attacked and raped a further two times by the four degenerates, and her novel is also destroyed. But Jennifer slowly recovers and in her now-twisted, psychotic mind, she then begins to seek revenge on the four men who raped her.

ORIGINAL UNCUT VERSION
________________________________________________________________________




General
Complete name : ISOYG.avi
Format : AVI
Format/Info : Audio Video Interleave
File size : 1.14 GiB
Duration : 1h 41mn
Overall bit rate : 1 615 Kbps
Writing application : VirtualDubMod 1.5.4.1 (build 2178/release)
Writing library : VirtualDubMod build 2178/release

Video
Format : MPEG-4 Visual
Format profile : Streaming [email protected]
Format settings, BVOP : Yes
Format settings, QPel : No
Format settings, GMC : No warppoints
Format settings, Matrix : Custom
Codec ID : XVID
Codec ID/Hint : XviD
Duration : 1h 41mn
Bit rate : 1 416 Kbps
Width : 720 pixels
Height : 400 pixels
Display aspect ratio : 16/9
Frame rate : 23.976 fps
Resolution : 24 bits
Colorimetry : 4:2:0
Scan type : Progressive
Bits/(Pixel*Frame) : 0.205
Stream size : 1 023 MiB (88%)
Writing library : XviD 1.2.1 (UTC 2008-12-04)

Audio
Format : AC-3
Format/Info : Audio Coding 3
Codec ID : 2000
Duration : 1h 40mn
Bit rate mode : Constant
Bit rate : 192 Kbps
Channel(s) : 2 channels
Channel positions : L R
Sampling rate : 48.0 KHz
Stream size : 139 MiB (12%)
Alignment : Split accross interleaves
Interleave, duration : 96 ms (2.30 video frames)
Interleave, preload duration : 96 ms


Please help your fellow pirates by seeding after download!

related torrents

Torrent name

health leech seeds Size
 


comments (0)

Main Menu