Action

Transormers TR EN AC3 DvDRip XviD TLine Dirty deeds

  • Download 5x Faster
  • Download torrent
  • Direct Download
  • Rate this torrent +  |  -
Transormers TR EN AC3 DvDRip XviD TLine Dirty deeds

Anonymous and Direct Download 300GB+ free


Torrent info

Name:Transormers TR EN AC3 DvDRip XviD TLine Dirty deeds

Total Size: 1.38 GB

Magnet: Magnet Link

Seeds: 1

Leechers: 1

Stream: Watch Online @ Movie4u

Last Updated: 0000-00-00 00:00:00 (Update Now)

Torrent added: 2008-08-06 15:36:35




Torrent Files List


Sample (Size: 1.38 GB) (Files: 103)

 Sample

  Sample.avi

11.84 MB

 transformers.cd1.txt

2.71 KB

 transformers.cd2.txt

2.71 KB

 Transormers.TR-EN AC3.DvDRip.XviD-TLine.cd1

  TLine-ta.r00

14.31 MB

  TLine-ta.r01

14.31 MB

  TLine-ta.r02

14.31 MB

  TLine-ta.r03

14.31 MB

  TLine-ta.r04

14.31 MB

  TLine-ta.r05

14.31 MB

  TLine-ta.r06

14.31 MB

  TLine-ta.r07

14.31 MB

  TLine-ta.r08

14.31 MB

  TLine-ta.r09

14.31 MB

  TLine-ta.r10

14.31 MB

  TLine-ta.r11

14.31 MB

  TLine-ta.r12

14.31 MB

  TLine-ta.r13

14.31 MB

  TLine-ta.r14

14.31 MB

  TLine-ta.r15

14.31 MB

  TLine-ta.r16

14.31 MB

  TLine-ta.r17

14.31 MB

  TLine-ta.r18

14.31 MB

  TLine-ta.r19

14.31 MB

  TLine-ta.r20

14.31 MB

  TLine-ta.r21

14.31 MB

  TLine-ta.r22

14.31 MB

  TLine-ta.r23

14.31 MB

  TLine-ta.r24

14.31 MB

  TLine-ta.r25

14.31 MB

  TLine-ta.r26

14.31 MB

  TLine-ta.r27

14.31 MB

  TLine-ta.r28

14.31 MB

  TLine-ta.r29

14.31 MB

  TLine-ta.r30

14.31 MB

  TLine-ta.r31

14.31 MB

  TLine-ta.r32

14.31 MB

  TLine-ta.r33

14.31 MB

  TLine-ta.r34

14.31 MB

  TLine-ta.r35

14.31 MB

  TLine-ta.r36

14.31 MB

  TLine-ta.r37

14.31 MB

  TLine-ta.r38

14.31 MB

  TLine-ta.r39

14.31 MB

  TLine-ta.r40

14.31 MB

  TLine-ta.r41

14.31 MB

  TLine-ta.r42

14.31 MB

  TLine-ta.r43

14.31 MB

  TLine-ta.r44

14.31 MB

  TLine-ta.r45

14.31 MB

  TLine-ta.r46

14.31 MB

  TLine-ta.r47

13.70 MB

  TLine-ta.rar

14.31 MB

  TLine-ta.sfv

3.59 KB

 Transormers.TR-EN AC3.DvDRip.XviD-TLine.cd2

  TLine-ta.r00

14.31 MB

  TLine-ta.r01

14.31 MB

  TLine-ta.r02

14.31 MB

  TLine-ta.r03

14.31 MB

  TLine-ta.r04

14.31 MB

  TLine-ta.r05

14.31 MB

  TLine-ta.r06

14.31 MB

  TLine-ta.r07

14.31 MB

  TLine-ta.r08

14.31 MB

  TLine-ta.r09

14.31 MB

  TLine-ta.r10

14.31 MB

  TLine-ta.r11

14.31 MB

  TLine-ta.r12

14.31 MB

  TLine-ta.r13

14.31 MB

  TLine-ta.r14

14.31 MB

  TLine-ta.r15

14.31 MB

  TLine-ta.r16

14.31 MB

  TLine-ta.r17

14.31 MB

  TLine-ta.r18

14.31 MB

  TLine-ta.r19

14.31 MB

  TLine-ta.r20

14.31 MB

  TLine-ta.r21

14.31 MB

  TLine-ta.r22

14.31 MB

  TLine-ta.r23

14.31 MB

  TLine-ta.r24

14.31 MB

  TLine-ta.r25

14.31 MB

  TLine-ta.r26

14.31 MB

  TLine-ta.r27

14.31 MB

  TLine-ta.r28

14.31 MB

  TLine-ta.r29

14.31 MB

  TLine-ta.r30

14.31 MB

  TLine-ta.r31

14.31 MB

  TLine-ta.r32

14.31 MB

  TLine-ta.r33

14.31 MB

  TLine-ta.r34

14.31 MB

  TLine-ta.r35

14.31 MB

  TLine-ta.r36

14.31 MB

  TLine-ta.r37

14.31 MB

  TLine-ta.r38

14.31 MB

  TLine-ta.r39

14.31 MB

  TLine-ta.r40

14.31 MB

  TLine-ta.r41

14.31 MB

  TLine-ta.r42

14.31 MB

  TLine-ta.r43

14.31 MB

  TLine-ta.r44

14.31 MB

  TLine-ta.r45

14.31 MB

  TLine-ta.r46

14.31 MB

  TLine-ta.r47

13.80 MB

  TLine-ta.rar

14.31 MB

  TLine-ta.sfv

3.59 KB
 

Announce URL: http://dirty-deeds.hopto.org/announce.php

Torrent description


Details
Name: Transformers TR-ENG AC3 DvDRip XviD-TLine
Description:
TLine

Transformers.TR-EN AC3.DvDRip.XviD-TLine
http://www.imdb.com/title/tt0418279/

Ripper : 17mayis
Format : AVI
Format/Info : Audio Video Interleave
File size : 700 MiB
Duration : 1h 10mn
Overall bit rate : 1382 Kbps
Writing application : VirtualDubMod 1.5.4.1 (build 2178/release)
Writing library : VirtualDubMod build 2178/release
IAS1 : English / English
IAS2 : Turkish / Turkish

Video
Format : MPEG-4 Visual
Format profile : Streaming [email protected]
Format settings, BVOP : Yes
Format settings, QPel : No
Format settings, GMC : No warppoints
Format settings, Matrix : Custom
Codec ID : XVID
Codec ID/Hint : XviD
Duration : 1h 10mn
Bit rate : 541 Kbps
Width : 720 pixels
Height : 304 pixels
Display aspect ratio : 2.35
Frame rate : 25.000 fps
Resolution : 8 bits
Colorimetry : 4:2:0
Scan type : Progressive
Bits/(Pixel*Frame) : 0.099
Stream size : 274 MiB (39%)
Writing library : XviD 1.2.0.dev47 (UTC 2006-11-01)

Audio #1
Format : AC-3
Format/Info : Audio Coding 3
Codec ID : 2000
Duration : 1h 10mn
Bit rate mode : Constant
Bit rate : 448 Kbps
Channel(s) : 6 channels
Channel positions : Front: L C R, Rear: L R, LFE
Sampling rate : 48.0 KHz
Stream size : 227 MiB (32%)
Alignment : Aligned on interleaves
Interleave, duration : 96 ms (2.40 video frames)
Interleave, preload duration : 96 ms

Audio #2
Format : AC-3
Format/Info : Audio Coding 3
Codec ID : 2000
Duration : 1h 10mn
Bit rate mode : Constant
Bit rate : 384 Kbps
Channel(s) : 6 channels
Channel positions : Front: L C R, Rear: L R, LFE
Sampling rate : 48.0 KHz
Stream size : 195 MiB (28%)
Alignment : Aligned on interleaves
Interleave, duration : 96 ms (2.40 video frames)
Interleave, preload duration : 96 ms

related torrents

Torrent name

health leech seeds Size
 


comments (0)

Main Menu