Horror

HOUSE ON HAUNTED HILL DEWSTRR

  • Download 5x Faster
  • Download torrent
  • Direct Download
  • Rate this torrent +  |  -
HOUSE ON HAUNTED HILL DEWSTRR

Anonymous and Free Direct Download 300GB+


Torrent info

Name:HOUSE ON HAUNTED HILL DEWSTRR

Total Size: 955.12 MB

Magnet: Magnet Link

Seeds: 0

Leechers: 0

Stream: Watch Online @ Movie4u

Last Updated: 2010-04-08 22:17:32 (Update Now)

Torrent added: 2009-08-27 21:37:51



VPN For Torrents

Torrent Files List


HOHH 1.jpg (Size: 955.12 MB) (Files: 14)

 HOHH 1.jpg

7.12 KB

 HOHH 1.sfv

1.52 KB

 HOHH 10.jpg

9.89 KB

 HOHH 2.jpg

16.96 KB

 HOHH 3.jpg

16.66 KB

 HOHH 4.jpg

19.52 KB

 HOHH 5.jpg

12.26 KB

 HOHH 6.jpg

14.10 KB

 HOHH 7.jpg

15.53 KB

 HOHH 8.jpg

10.12 KB

 HOHH 9.jpg

16.01 KB

 HOUSE ON HAUNTED HILL.DEWSTRR.divx

954.98 MB

 HOUSE ON HAUNTED HILL.NFO

2.81 KB

 Torrent_downloaded_from_Demonoid.com.txt

0.05 KB
 

Announce URL: http://inferno.demonoid.com:3408/announce

Torrent description

HOUSE ON HAUNTED HILL[1] DVDRIP

Horror | Mystery | Thriller

When twisted billionaire Stephen Price and his devilish wife, Evelyn, offer six strangers one million dollars each, there is only one rule to the game: they\'ll have to survive one night in a former mental institution, haunted by the ghosts of the inmates killed there, and an insane doctor who did unspeakable things... At first, everyone is having fun, thinking that the whole thing is a joke. But once the entire house automatically seals itself shut, they realize that this is no joke

http://www.imdb.com/title/tt0185371/

Format : AVI
Format/Info : Audio Video Interleave
File size : 955 MiB
Duration : 1h 32mn
Overall bit rate : 1 438 Kbps

Video
Format : MPEG-4 Visual
Format settings, BVOP : Yes
Format settings, QPel : No
Format settings, GMC : No warppoints
Format settings, Matrix : Default
Codec ID : DX50
Codec ID/Hint : DivX 5
Duration : 1h 32mn
Bit rate : 1 300 Kbps
Width : 720 pixels
Height : 400 pixels
Display aspect ratio : 16/9
Frame rate : 23.976 fps
Resolution : 24 bits
Colorimetry : 4:2:0
Scan type : Progressive
Bits/(Pixel*Frame) : 0.188
Stream size : 864 MiB (90%)
Title : Video
Writing library : DivX 6.8.2 (UTC 2008-05-17)

Audio
Format : MPEG Audio
Format version : Version 1
Format profile : Layer 3
Codec ID : 55
Codec ID/Hint : MP3
Duration : 1h 32mn
Bit rate mode : Constant
Bit rate : 128 Kbps
Channel(s) : 2 channels
Sampling rate : 48.0 KHz
Resolution : 16 bits
Stream size : 85.0 MiB (9%)
Alignment : Split accross interleaves
Interleave, duration : 42 ms (1.00 video frame)
Interleave, preload duration : 500 ms
Title : Audio
Writing library : LAME3.92

General
Complete name : HOUSE ON HAUNTED HILL.DEWSTRR\\HOHH 1.sfv
File size : 1.52 KiB

General
Complete name :HOUSE ON HAUNTED HILL.DEWSTRR\\Torrent_downloaded_from_Demonoid.com.txt
File size : 47.0 Bytes
HOUSE ON HAUNTED HILL DEWSTRR preview 0
HOUSE ON HAUNTED HILL DEWSTRR preview 1
HOUSE ON HAUNTED HILL DEWSTRR preview 2
HOUSE ON HAUNTED HILL DEWSTRR preview 3
HOUSE ON HAUNTED HILL DEWSTRR preview 4
HOUSE ON HAUNTED HILL DEWSTRR preview 5
HOUSE ON HAUNTED HILL DEWSTRR preview 6
HOUSE ON HAUNTED HILL DEWSTRR preview 7
HOUSE ON HAUNTED HILL DEWSTRR preview 8
HOUSE ON HAUNTED HILL DEWSTRR preview 9
burned with windows [with a couple of other movies on a disk] and played on my philips divx ultra certified dvd player

related torrents

Torrent name

health leech seeds Size
 


comments (0)

Main Menu