WWE - Wrestling

TNA iMPACT 27 08 09 [SatRiP XviD Mp3 ENG][TNTVillage Scambioetico]

  • Download 5x Faster
  • Download torrent
  • Direct Download
  • Rate this torrent +  |  -
TNA iMPACT 27 08 09 [SatRiP XviD Mp3 ENG][TNTVillage Scambioetico]

Free and Direct Download with Usenet.nl 300GB+ free


Torrent info

Name:TNA iMPACT 27 08 09 [SatRiP XviD Mp3 ENG][TNTVillage Scambioetico]

Total Size: 701.96 MB

Magnet: Magnet Link

Seeds: 1

Leechers: 1

Stream: Watch Online @ Movie4u

Last Updated: 2010-10-01 09:37:05 (Update Now)

Torrent added: 2009-08-27 21:34:26





Torrent Files List


TNA.iMPACT.2009.08.27.HDTV.XviD-iOFE.avi (Size: 701.96 MB) (Files: 1)

 TNA.iMPACT.2009.08.27.HDTV.XviD-iOFE.avi

701.96 MB
 

Announce URL: http://tracker.tntvillage.scambioetico.org:2710/announce

Torrent description

TNA iMPACT 27-08-09 [SatRiP-XviD-Mp3-ENG][TNTVillage.Scambioetico]


General
Complete name : C:\TNA.iMPACT.2009.08.27.HDTV.XviD-iOFE.avi
Format : AVI
Format/Info : Audio Video Interleave
File size : 702 MiB
Duration : 1h 29mn
Overall bit rate : 1 091 Kbps
Writing application : VirtualDubMod 1.5.10.2 (build 2542/release)
Writing library : VirtualDubMod build 2542/release

Video
Format : MPEG-4 Visual
Format profile : Streaming [email protected]
Format settings, BVOP : Yes
Format settings, QPel : No
Format settings, GMC : No warppoints
Format settings, Matrix : Default
Codec ID : XVID
Codec ID/Hint : XviD
Duration : 1h 29mn
Bit rate : 954 Kbps
Width : 624 pixels
Height : 352 pixels
Display aspect ratio : 16/9
Frame rate : 25.000 fps
Resolution : 24 bits
Colorimetry : 4:2:0
Scan type : Progressive
Bits/(Pixel*Frame) : 0.174
Stream size : 613 MiB (87%)
Writing library : XviD 1.2.1 (UTC 2008-12-04)

Audio
Format : MPEG Audio
Format version : Version 1
Format profile : Layer 3
Codec ID : 55
Codec ID/Hint : MP3
Duration : 1h 29mn
Bit rate mode : Constant
Bit rate : 128 Kbps
Channel(s) : 2 channels
Sampling rate : 48.0 KHz
Resolution : 16 bits
Stream size : 82.3 MiB (12%)
Alignment : Split accross interleaves
Interleave, duration : 40 ms (1.00 video frame)
Interleave, preload duration : 500 ms

related torrents

Torrent name

health leech seeds Size
 

comments (0)

Main Menu