Horror

House Of 1000 Corpses (2003) DVDRip (AC3 Audio)

  • Download 5x Faster
  • Download torrent
  • Direct Download
  • Rate this torrent +  |  -
House Of 1000 Corpses (2003) DVDRip (AC3 Audio)

Free and Direct Download with Usenet 300GB+ free


Torrent info

Name:House Of 1000 Corpses (2003) DVDRip (AC3 Audio)

Total Size: 852.92 MB

Magnet: Magnet Link

Seeds: 0

Leechers: 0

Stream: Watch Online @ Movie4u

Last Updated: 2016-01-30 07:11:48 (Update Now)

Torrent added: 2009-08-27 21:34:15




Torrent Files List


House Of 1000 Corpses (2003) - [akhiugo].avi (Size: 852.92 MB) (Files: 1)

 House Of 1000 Corpses (2003) - [akhiugo].avi

852.92 MB
 

tracker

leech seeds
 

Torrent description

In House of 1000 Corpses, two young couples take a misguided tour onto the back roads of America in search of a local legend known as Dr. Satan. Lost and stranded, they are set upon by a bizarre family of psychotics. Murder, cannibalism and satanic rituals are just a few of the 1000+ horrors that await.


IMDB Rating: 5.6/10 (21,679 votes)


General
Complete name : House Of 1000 Corpses (2003) - [akhiugo].avi
Format : AVI
Format/Info : Audio Video Interleave
File size : 853 MiB
Duration : 1h 29mn
Overall bit rate : 1 338 Kbps
Writing application : VirtualDubMod 1.5.4.1 (build 2178/release)
Writing library : VirtualDubMod build 2178/release

Video
Format : MPEG-4 Visual
Format profile : Streaming [email protected]
Format settings, BVOP : Yes
Format settings, QPel : No
Format settings, GMC : No warppoints
Format settings, Matrix : Custom
Codec ID : XVID
Codec ID/Hint : XviD
Duration : 1h 29mn
Bit rate : 1 139 Kbps
Width : 656 pixels
Height : 368 pixels
Display aspect ratio : 16/9
Frame rate : 25.000 fps
Resolution : 24 bits
Colorimetry : 4:2:0
Scan type : Progressive
Bits/(Pixel*Frame) : 0.189
Stream size : 726 MiB (85%)
Writing library : XviD 1.2.1 (UTC 2008-12-04)

Audio
Format : AC-3
Format/Info : Audio Coding 3
Codec ID : 2000
Duration : 1h 29mn
Bit rate mode : Constant
Bit rate : 192 Kbps
Channel(s) : 2 channels
Channel positions : L R
Sampling rate : 48.0 KHz
Stream size : 122 MiB (14%)
Alignment : Aligned on interleaves
Interleave, duration : 96 ms (2.40 video frames)
Interleave, preload duration : 96 ms


Please help your fellow pirates by seeding after download!

related torrents

Torrent name

health leech seeds Size
 

comments (0)

Main Menu