Horror

Hello Mary Lou (Prom Night II) [DVDRip] [KooKoo] [h33t]

  • Download 5x Faster
  • Download torrent
  • Direct Download
  • Rate this torrent +  |  -

Torrent info

Name:Hello Mary Lou (Prom Night II) [DVDRip] [KooKoo] [h33t]

Total Size: 799.71 MB

Magnet: Magnet Link

Seeds: 0

Leechers: 0

Stream: Watch Full Movie @ Movie4u

Last Updated: 2017-03-10 22:18:09 (Update Now)

Torrent added: 2009-08-27 21:21:13



VPN For Torrents

Torrent Files List


Hello Mary Lou (Prom Night II) [DVDRip] [KooKoo] [h33t].avi (Size: 799.71 MB) (Files: 10)

 Hello Mary Lou (Prom Night II) [DVDRip] [KooKoo] [h33t].avi

785.32 MB

 KooKoo.txt

13.76 KB

 Poster

  hello_mary_lou_prom_night_ii.jpg

60.36 KB

 Screenshots

  Hello Ma_0.06.08.11.jpg

92.98 KB

  Hello Ma_0.16.45.21.jpg

140.88 KB

  Hello Ma_0.49.57.14.jpg

88.71 KB

  Hello Ma_1.07.30.06.jpg

88.09 KB

 Subtitles

  Hello Mary Lou (Prom Night II) [DVDRip] [KooKoo] [h33t].idx

184.99 KB

  Hello Mary Lou (Prom Night II) [DVDRip] [KooKoo] [h33t].sub

13.73 MB

 tracked_by_h33t_com.txt

0.02 KB
 

tracker

leech seeds
 

Torrent description

Hello Mary Lou: Prom Night II (1987)
_______________________________________________________________________________________________________________________

Genre: Slasher, Horror

_______________________________________________________________________________________________________________________
Synopsis:

In 1957, Hamilton High School\'s prom queen got flambeed. Now she\'s back and she\'s burning mad!

It\'s been 30 years since bad girl Mary Lou Maloney (Lisa Schrage) was accidentally torched by her
ex-boyfriend Bill Nordham (Michael Ironside) just before she was about to be crowned prom queen. Bill
is now Hamilton High\'s principal and his son, Craig (Justin Louis) is dating this year\'s hopeful queen,
good girl Vicki Carpenter (Wendy Lyon). When Vicki finds an old dress perfect for the prom - trouble
begins. Mary Lou\'s spirit possesses Vicki\'s body and a torrent of fury is unleashed on everyone in town.
With or without a tiara, Mary Lou is going to make prom night hot!
________________________________________________________________________________________________________________________
IMDB URL: http://www.imdb.com/title/tt0093176/

________________________________________________________________________________________________________________________
DVD source Information:

MGM / UA ~ NR ~ 97mins. ~ Release Date: 4/1/2008 ~ Prod Year: 1987

http://www.dvdempire.com/Exec/v4_item.asp?userid=99366343788745&item_id=1391065&searchID=455347
_________________________________________________________________________________________________________________________


_________________________________________________________________________________________________________________________

File Verified With MediaInfo:
-----------------------------------------------------------------------------------------------------------------------------
General
Complete name: Hello Mary Lou (Prom Night II) [DVDRip] [KooKoo] [h33t].avi
Format: AVI
Format/Info: Audio Video Interleave
File size: 785 MiB
Duration: 1h 36mn
Overal bit rate: 1135 Kbps
Movie name: Hello Mary Lou (Prom Night II)
Director: Ripped By KooKoo
Writing application: Lavf51.19.0
Product: DVD_VOLUME

Video
Format: MPEG-4 Visual
Format profile: [email protected]
Format settings, BVOP: No
Format settings, QPel: No
Format settings, GMC: No warppoints
Format settings, Matrix: Default
Codec ID: XVID
Codec ID/Hint: XviD
Duration: 1h 36mn
Bit rate: 995 Kbps
Width: 608 pixels
Height: 338 pixels
Display aspect ratio: 16/9
Frame rate: 23.976 fps
Resolution: 8 bits
Colorimetry: 4:2:0
Scan type: Progressive
Bits/(Pixel*Frame): 0.202
Stream size: 688 MiB
Writing library: XviD 1.1.2 (UTC 2006-11-01)

Audio
Format: MPEG Audio
Format version: Version 1
Format profile: Layer 3
Codec ID: 55
Codec ID/Hint: MP3
Duration: 1h 36mn
Bit rate mode: Constant
Bit rate: 128 Kbps
Channel(s): 2 channels
Sampling rate: 48.0 KHz
Resolution: 16 bits
Stream size: 88.5 MiB
Writing library: LAME3.97



This Film is in English.
This Film Has Spanish, French, and English Subtitles


Ripped by KooKoo, tracked by h33t_com

related torrents

Torrent name

health leech seeds Size
 


comments (0)

Main Menu

 

script data-cfasync="false" src="//d2ghscazvn398x.cloudfront.net/?cshgd=690275">