Horror

Gothic (1986) (DVDRip) KooKoo [1337x]

  • Download 5x Faster
  • Download torrent
  • Direct Download
  • Rate this torrent +  |  -
Gothic (1986) (DVDRip) KooKoo [1337x]

Anonymous and Free Direct Download


Torrent info

Name:Gothic (1986) (DVDRip) KooKoo [1337x]

Total Size: 791.41 MB

Magnet: Magnet Link

Seeds: 0

Leechers: 0

Stream: Watch Online @ Movie4u

Last Updated: 2017-08-04 23:45:08 (Update Now)

Torrent added: 2009-08-27 20:51:58



VPN For Torrents

Torrent Files List


Subtitles (Size: 791.41 MB) (Files: 5)

 Subtitles

  Gothic (1986) (DVDRip) KooKoo [1337x].idx

410.71 KB

  Gothic (1986) (DVDRip) KooKoo [1337x].sub

41.20 MB

 1337x.txt

0.02 KB

 Gothic (1986) (DVDRip) KooKoo [1337x].avi

749.79 MB

 KooKoo.nfo

8.00 KB
 

Announce URL:

Torrent description

ÛÛÛÛÛÛÛÛÛÛÛÛÛÛÛÛÛÛÛÛÛÛÛÛÛÛÛÛÛÛÛÛÛÛÛÛÛÛÛÛÛÛÛÛÛÛÛÛÛÛÛÛÛÛÛÛÛÛÛÛÛÛÛÛÛÛÛ
ÛÛ ÛÛÛ ÛÛ ÛÛÛ ÛÛ ÛÛÛ ÛÛ ÛÛÛ ÛÛÛ
ÛÛ ÛÛ ÛÛ Û Û ÛÛ ÛÛ Û ÛÛ
ÛÛ Û ÛÛÛ Û Û Û ÛÛÛ Û ÛÛ
ÛÛ ÛÛÛÛ ÛÛ Û ÛÛ Û ÛÛÛÛ ÛÛ Û ÛÛ ÛÛ
ÛÛ ÛÛÛÛÛ ÛÛ Û ÛÛ Û ÛÛÛÛÛ ÛÛ Û ÛÛ ÛÛ
ÛÛ ÛÛÛÛÛÛ ÛÛ Û ÛÛ Û ÛÛÛÛÛÛ ÛÛ Û ÛÛ ÛÛ
ÛÛ ÛÛÛÛÛÛ ÛÛ Û ÛÛ Û ÛÛÛÛÛÛ ÛÛ Û ÛÛ ÛÛ
ÛÛ ÛÛÛÛÛ ÛÛ Û ÛÛ Û ÛÛÛÛÛ ÛÛ Û ÛÛ ÛÛ
ÛÛ ÛÛÛÛ Û Û ÛÛÛÛ Û ÛÛ
ÛÛ Û ÛÛÛ Û Û Û ÛÛÛ Û ÛÛ
ÛÛ ÛÛ ÛÛÛ ÛÛÛ ÛÛ ÛÛ ÛÛÛ ÛÛÛ ÛÛÛ
ÛÛ ÛÛÛ ÛÛÛÛÛÛÛÛÛÛÛÛÛÛÛÛÛÛÛ ÛÛÛ ÛÛÛÛÛÛÛÛÛÛÛÛÛÛÛÛÛÛÛÛ
ÛÛÛÛÛÛÛÛÛÛÛÛÛÛÛÛÛÛÛÛÛÛÛÛÛÛÛÛÛÛÛÛÛÛÛÛÛÛÛÛÛÛÛÛÛÛÛÛÛÛÛÛÛÛÛÛÛÛÛÛÛÛÛÛÛÛÛ



Movie Name: Gothic
Genre: Horror | Thriller | Drama
Release Date: 1986
Country: UK
Certification: R
IMDB Link: http://www.imdb.com/title/tt0091142/

Plot: The year is 1816. A sprawling villa in Switzerland is the setting for
a stormy night of madness. On this night of the "Haunted Summer,"
five famous friends gather around an ancient skull to conjure up
their darkest fears. Poets Lord Byron and Percy Shelley, Shelley's
fiancée Mary Goldwin, Mary's stepsister Claire Clairemont and Byron's
friend John Polidori spend a hallucinogenic evening confronting their
fears in a frenzy of shocking lunacy. Horrifying visions invade the
astle - realizations of Byron's fear of leeches, Shelley's fear of
premature burial, Mary's fear of birthing a stillborn child - all
brought forth in a bizarre dreamscape. They share the terrifying
fantasies that chase them through the castle that night. The events
of that night later inspired Mary Shelley to write the classic
"Frankenstein" and Dr. Polidori to pen "The Vampyre," which became
the basis for the creation of Dracula.






Rip Details:


Format : AVI
Format/Info : Audio Video Interleave
File size : 750 MiB
Duration : 1h 23mn
Overall bit rate : 1254 Kbps
Writing application : VirtualDubMod 1.5.10.2 (build 2540/release)
Writing library : VirtualDubMod build 2540/release
Copyright : Ripped By KooKoo

Video
Format : MPEG-4 Visual
Format profile : Streaming [email protected]
Format settings, BVOP : Yes
Format settings, QPel : No
Format settings, GMC : No warppoints
Format settings, Matrix : Default
Muxing mode : Packet Bitstream
Codec ID : XVID
Codec ID/Hint : XviD
Duration : 1h 23mn
Bit rate : 1116 Kbps
Width : 640 pixels
Height : 336 pixels
Display aspect ratio : 1.905
Frame rate : 25.000 fps
Resolution : 8 bits
Colorimetry : 4:2:0
Scan type : Progressive
Bits/(Pixel*Frame) : 0.208
Stream size : 667 MiB (89%)
Writing library : XviD 1.2.0.dev47 (UTC 2006-11-01)

Audio
Format : MPEG Audio
Format version : Version 1
Format profile : Layer 3
Codec ID : 55
Codec ID/Hint : MP3
Duration : 1h 23mn
Bit rate mode : Constant
Bit rate : 128 Kbps
Minimum bit rate : 128 Kbps
Channel(s) : 2 channels
Sampling rate : 48.0 KHz
Resolution : 16 bits
Stream size : 76.5 MiB (10%)
Alignment : Aligned on interleaves
Interleave, duration : 40 ms (1.00 video frame)
Interleave, preload duration : 504 ms
Writing library : LAME3.97
Encoding settings : CBR


Additional Details: Audio is in English. Subtitles are included in idx/sub
format. Languages for subs include: English, Spanish, Greek,
German, French, Italian, Nederlands.


Gothic (1986) (DVDRip) KooKoo [1337x]



Don't foget to visit 1337x.org

related torrents

Torrent name

health leech seeds Size
 


comments (0)

Main Menu