Horror

Gnaw 2009 DVDRIP XviD ZEKTORM

  • Download 5x Faster
  • Download torrent
  • Direct Download
  • Rate this torrent +  |  -
Gnaw 2009 DVDRIP XviD ZEKTORM

Free and Direct Download with Usenet.nl 300GB+ free


Torrent info

Name:Gnaw 2009 DVDRIP XviD ZEKTORM

Total Size: 701.04 MB

Magnet: Magnet Link

Seeds: 4

Leechers: 1

Stream: Watch Online @ Movie4u

Last Updated: 2010-12-06 06:11:28 (Update Now)

Torrent added: 2009-08-27 20:50:06





Torrent Files List


Gnaw.2009.DVDRIP.XviD-ZEKTORM.avi (Size: 701.04 MB) (Files: 2)

 Gnaw.2009.DVDRIP.XviD-ZEKTORM.avi

701.03 MB

 READ.hlp

10.81 KB
 

Announce URL: http://denis.stalker.h3q.com:6969/announce

Torrent description

Title : Gnaw
Year : 2009
Genre : Comedy | Horror
iMDB URL : http://www.imdb.com/title/tt1268208/

Complete name : Gnaw.2009.DVDRIP.XviD-ZEKTORM.avi
Format : AVI
File size : 701 MiB
Duration : 1h 17mn
Overall bit rate : 1273 Kbps
Source : DVD PAL

Video
Format : MPEG-4 Visual
Format profile : Streaming [email protected]
Codec ID : DX50
Codec ID/Hint : DivX 5
Duration : 1h 17mn
Bit rate : 1137 Kbps
Width : 720 pixels
Height : 304 pixels
Display aspect ratio : 2.35
Frame rate : 25.000 fps
Resolution : 24 bits
Colorimetry : 4:2:0
Scan type : Progressive
Bits/(Pixel*Frame) : 0.208
Stream size : 626 MiB (89%)
Writing library : XviD

Audio
Format : MPEG Audio
Format version : Version 1
Format profile : Layer 3
Codec ID : 55
Codec ID/Hint : MP3
Duration : 1h 17mn
Bit rate mode : Constant
Bit rate : 128 Kbps
Channel(s) : 2 channels
Sampling rate : 48.0 KHz
Resolution : 16 bits
Stream size : 70.5 MiB (10%)

related torrents

Torrent name

health leech seeds Size
 

comments (0)

Main Menu