Horror

FROSTBITE (2006) Vampires DD 5 1 Subs ENG FIN DK NO SWE *DM*

  • Download 5x Faster
  • Download torrent
  • Direct Download
  • Rate this torrent +  |  -
FROSTBITE (2006) Vampires DD 5 1 Subs ENG FIN DK NO SWE *DM*

Anonymous and Free Direct Download 300GB+


Torrent info

Name:FROSTBITE (2006) Vampires DD 5 1 Subs ENG FIN DK NO SWE *DM*

Total Size: 997.95 MB

Magnet: Magnet Link

Seeds: 0

Leechers: 0

Stream: Watch Online @ Movie4u

Last Updated: 2015-09-10 03:16:58 (Update Now)

Torrent added: 2009-08-27 20:38:47



VPN For Torrents

Torrent Files List


FROSTBITE.avi (Size: 997.95 MB) (Files: 9)

 FROSTBITE.avi

997.51 MB

 FROSTBITE.Danish.srt

45.66 KB

 FROSTBITE.English.srt

46.00 KB

 FROSTBITE.Finnish.srt

43.04 KB

 FROSTBITE.Norwegian.srt

44.99 KB

 FROSTBITE.Swedish.srt

45.76 KB

 frostbite_back.jpg

54.10 KB

 frostbite_poster.jpg

53.52 KB

 frostbitenDvdCover.jpg

115.16 KB
 

tracker

leech seeds
 

Torrent description

The Perfect location for a vampire movie ? Up there in Swedish (or Finnish!) Lapland of course ! Why ? Did you know that the sun will not rise there at all in one whole month when it\'s winter ? It is true. It is cold, dark, snowy and imagine vampires there...

You will feel chilly and cold wherever you are... maybe you are sweating in the southern sun ? ... then watch this and feel the northern winter darkness and no sun rising at all in the morning ... and freezing temperatures... and start to feel cold, yes very cold !!!

Trivia: Utsjoki is the most northern town in Finland, there the last sunrise is on 25/11 and the next surise will be on 16/1 - meaning 51 days in a row with no sunrise at all !!!!!!!!!! Now you have some real cold background facts before watching this movie.......

FROSTBITE (2006) or Frostbiten. Genre: Horror / Comedy

ENJOY......ENJOY......ENJOY........
------------------------------------------------------------------------------------------------

I like this movie. Movie info:
http://www.moviexclusive.com/review/frostbite/frostbite.htm

http://www.imdb.com/title/tt0454457/

------------------------------------------------------------------------------------------------
Xvid encoding done by me yesterday with FairUse Wizard 2.9. Slowest encoding settings and the original 5.1 DD sound.
All subs made by me today with SubRip and yes they are in .srt so you can watch them on your standalone Dvd-Divx player as well !!! Works perfectly (tested).

Dvd......... Retail PAL Dvd ripped with DvdFab
Audio....... Swedish 5.1 DD AC3
Subs........ ENG FIN NO DK SWE in .srt (PC and TV compatible with Dvd-player !)
XviD......... 972 kbps (very good qty. Tried to preserve full Dvd-quality).
Resolution... 688x288 (Anamorphic widescreen)
------------------------------------------------------------------------------------------------

PLEASE BE WELCOMED TO LOOK AT MY OTHER MOVIE TORRENTS. 2 days ago i added TEETH

(40+ Seeds today!). Here is the link:

http://thepiratebay.org/user/DigieraMandela/

-----------------------------------------------------------------------------------

SUOMEKSI:

Moi kaikki! Olen k?ytt?nyt viikon ajan t?ss? saadakseni laadun kaikkein korkeimmaksi jatkossa! Unohda ne axxot ja klaxxonit. T?ss? on suomalaista laatua sinulle suomalainen ja jatkossa aina DD 5.1 ??nell? !!! Tsekkaa muut filmit - linkki tuossa muutama rivi ylemp?n?. Ja kenelt? muulta saisit aina Suomi-tekstit parhaaassa .srt muodossa ? Minulta saat ja toimivat aina t?ydellisesti, koska olen itse ne huolella valmistanut ja aina my?s itse testannut !

FROSTBITE + .srt-tekstit suomeksi (Tein kaiken itse eilen! Tekstit t?n??n.). N?kyy TV:ss? Divx-Dvd-soittimella kun vain muistat nimet? filmin ja tekstityksen t?sm?lleen samaksi. Esim: FROSTBITE.avi ja FROSTBITE.srt ja tallenna ne dvd:lle ja johan toimii upeasti. Vain kaikkein uusimmat Dvd-soittimet kuten Pioneer 2008 joka minulla on, hyv?ksyy jopa sen ett? tekstiosan tallentaa n?in:
FROSTBITE.Finnish.srt (mutta vanhemmat soittimet eiv?t tunnista jos noin!).
----------------------------------------------------------------------------------

P? SVENSKA:

FROSTBITEN + .srt texter p? svenska (Allt gjort av mig!). Kan ses p? TV med din Divx-Dvd-spelare bara du minns att namnge filmen och text-filen exakt detsamma: tex. FROSTBITE.avi och FROSTBITE.srt och sedan br?nna p? DVD.
De allra nyaste DVD-spelarna som min Pioneer 2008 model, kan visa texterna ?ven s? h?r: FROSTBITE.Swedish.srt (men som sagt s? kan man inte g?ra med ?ldre
modeller !)
----------------------------------------------------------------------------------

LOG:
General
Complete name : H:AVI movies 5.1 sound XviD DivX ac-3FROSTBITE (2006) Vampires DD.5.1 Subs ENG FIN DK NO SWE XviDFROSTBITE.avi
Format : AVI
Format/Info : Audio Video Interleave
File size : 998 MiB
Duration : 1h 37mn
Overall bit rate : 1 430 Kbps
Writing application : VirtualDubMod 1.5.10.2 (build 2540/release)
Writing library : VirtualDubMod build 2540/release

Video
Format : MPEG-4 Visual
Format profile : Streaming [email protected]
Format settings, BVOP : Yes
Format settings, QPel : No
Format settings, GMC : No warppoints
Format settings, Matrix : Default (MPEG)
Muxing mode : Packed bitstream
Codec ID : XVID
Codec ID/Hint : XviD
Duration : 1h 37mn
Bit rate : 972 Kbps
Width : 688 pixels
Height : 288 pixels
Display aspect ratio : 2.35
Frame rate : 25.000 fps
Resolution : 24 bits
Colorimetry : 4:2:0
Scan type : Progressive
Bits/(Pixel*Frame) : 0.196
Stream size : 678 MiB (68%)
Writing library : XviD 1.2.0.dev47 (UTC 2006-11-01)

Audio
Format : AC-3
Format/Info : Audio Coding 3
Codec ID : 2000
Duration : 1h 37mn
Bit rate mode : Constant
Bit rate : 448 Kbps
Channel(s) : 6 channels
Channel positions : Front: L C R, Surround: L R, LFE
Sampling rate : 48.0 KHz
Stream size : 312 MiB (31%)
Alignment : Split accross interleaves
Interleave, duration : 40 ms (1.00 video frame)
Interleave, preload duration : 500 ms

related torrents

Torrent name

health leech seeds Size
 


comments (0)

Main Menu