Horror

FROM BEYOND DEWSTRR

  • Download 5x Faster
  • Download torrent
  • Direct Download
  • Rate this torrent +  |  -
FROM BEYOND DEWSTRR

Anonymous and Free Direct Download 300GB+


Torrent info

Name:FROM BEYOND DEWSTRR

Total Size: 1.10 GB

Magnet: Magnet Link

Seeds: 2

Leechers: 1

Stream: Watch Online @ Movie4u

Last Updated: 2010-10-06 23:10:55 (Update Now)

Torrent added: 2009-08-27 20:35:31



VPN For Torrents

Torrent Files List


FB CP.jpg (Size: 1.10 GB) (Files: 15)

 FB CP.jpg

34.13 KB

 FB CP.sfv

1.69 KB

 FBU 1.jpg

26.14 KB

 FBU 10.jpg

22.15 KB

 FBU 2.jpg

14.54 KB

 FBU 3.jpg

17.61 KB

 FBU 4.jpg

18.07 KB

 FBU 5.jpg

18.61 KB

 FBU 6.jpg

22.38 KB

 FBU 7.jpg

23.44 KB

 FBU 8.jpg

21.73 KB

 FBU 9.jpg

20.07 KB

 FROM BEYOND US.NFO

3.07 KB

 FROM BEYOND.avi

1.10 GB

 Torrent_downloaded_from_Demonoid.com.txt

0.05 KB
 

Announce URL: http://inferno.demonoid.com:3413/announce

Torrent description

FROM BEYOND US DVDRIP

Fantasy | Horror | Sci-Fi | Thriller

Dr. Pretorius and his colleagues are working on a sensational experiment: by means of stimulation of the pineal gland, they want to open the human mind to higher dimensions. When the experiment succeeds, however, they are immediately attacked by terrible life forms, which apparently are floating around us all the time. When Dr. Pretorius is killed by one of them, Dr. Tillinghast is under suspect and thrown into the psycho ward due to his stories. Only the ambitious psychologist Dr. McMichaels believes him and wants to continue the experiment

FROM BEYOND DEWSTRR preview 0

http://www.imdb.com/title/tt0091083/

Format : AVI
Format/Info : Audio Video Interleave
File size : 1.10 GiB
Duration : 1h 25mn
Overall bit rate : 1 837 Kbps
Writing application : VirtualDubMod 1.5.4.1 (build 2178/release)
Writing library : VirtualDubMod build 2178/release

Video
Format : MPEG-4 Visual
Format profile : Streaming [email protected]
Format settings, BVOP : Yes
Format settings, QPel : No
Format settings, GMC : No warppoints
Format settings, Matrix : Custom
Codec ID : XVID
Codec ID/Hint : XviD
Duration : 1h 25mn
Bit rate : 1 382 Kbps
Width : 720 pixels
Height : 400 pixels
Display aspect ratio : 16/9
Frame rate : 23.976 fps
Resolution : 24 bits
Colorimetry : 4:2:0
Scan type : Progressive
Bits/(Pixel*Frame) : 0.200
Stream size : 846 MiB (75%)
Writing library : XviD 1.2.1 (UTC 2008-12-04)

Audio
Format : AC-3
Format/Info : Audio Coding 3
Codec ID : 2000
Duration : 1h 25mn
Bit rate mode : Constant
Bit rate : 448 Kbps
Channel(s) : 4 channels
Channel positions : Front: L C R, Surround: C
Sampling rate : 48.0 KHz
Stream size : 274 MiB (24%)
Alignment : Split accross interleaves
Interleave, duration : 96 ms (2.30 video frames)
Interleave, preload duration : 96 ms
Language : English

General
Complete name : FROM BEYOND.DEWSTRR\FB CP.sfv
File size : 1.52 KiB

General
Complete name : FROM BEYOND.DEWSTRR\Torrent_downloaded_from_Demonoid.com.txt
File size : 47.0 Bytes
FROM BEYOND DEWSTRR preview 1
FROM BEYOND DEWSTRR preview 2
FROM BEYOND DEWSTRR preview 3
FROM BEYOND DEWSTRR preview 4
FROM BEYOND DEWSTRR preview 5
FROM BEYOND DEWSTRR preview 6
FROM BEYOND DEWSTRR preview 7
FROM BEYOND DEWSTRR preview 8
FROM BEYOND DEWSTRR preview 9
FROM BEYOND DEWSTRR preview 10
burned with windows [with a couple of other movies on a disk] and played on my philips divx ultra certified dvd player
be sure to set your dvd player on the correct aspect ratio



related torrents

Torrent name

health leech seeds Size
 


comments (0)

Main Menu