Horror

Frayed [2007] DVDRip XviD VoMiT

  • Download 5x Faster
  • Download torrent
  • Direct Download
  • Rate this torrent +  |  -
Frayed [2007] DVDRip XviD VoMiT

Anonymous and Free Direct Download


Torrent info

Name:Frayed [2007] DVDRip XviD VoMiT

Total Size: 697.68 MB

Magnet: Magnet Link

Seeds: 0

Leechers: 0

Stream: Watch Online @ Movie4u

Last Updated: 2015-03-14 19:39:50 (Update Now)

Torrent added: 2009-08-27 20:23:47



VPN For Torrents

Torrent Files List


Frayed [2007].avi (Size: 697.68 MB) (Files: 1)

 Frayed [2007].avi

697.68 MB
 

tracker

leech seeds
 

Torrent description

Pat Baker is a small town sheriff. His son, Kurt, is a deranged young man with a dark secret. Sheriff Baker's worst nightmare comes true when Kurt escapes from a psychiatric hospital where he was locked away for the brutal murder of his mother thirteen years earlier. Gary, a hospital security guard, sets out into the woods to stop him, but soon finds himself relentlessly hunted by the deranged psychopath intent on killing him and anyone who crosses his path. Sheriff Baker launches an intense search to find his son, only to discover that his daughter, Sara, and her friends are camping in the same woods where Kurt has escaped. Kurt's psychosis escalates, as does his vengeful killing spree, culminating in a terrifying, climactic confrontation with Kurt, the sheriff and his family.




General
Complete name : Frayed [2007].avi
Format : AVI
Format/Info : Audio Video Interleave
File size : 698 MiB
Duration : 1h 51mn
Overall bit rate : 876 Kbps
Writing application : Nandub v1.0rc2
Writing library : Nandub build 1852/release

Video
Format : MPEG-4 Visual
Format profile : Streaming [email protected]
Format settings, BVOP : Yes
Format settings, QPel : No
Format settings, GMC : No warppoints
Format settings, Matrix : Default
Codec ID : XVID
Codec ID/Hint : XviD
Duration : 1h 51mn
Bit rate : 742 Kbps
Width : 608 pixels
Height : 336 pixels
Display aspect ratio : 16/9
Frame rate : 23.974 fps
Resolution : 24 bits
Colorimetry : 4:2:0
Scan type : Progressive
Bits/(Pixel*Frame) : 0.151
Stream size : 591 MiB (85%)
Writing library : XviD 1.2.1 (UTC 2008-12-04)

Audio
Format : MPEG Audio
Format version : Version 1
Format profile : Layer 3
Codec ID : 55
Codec ID/Hint : MP3
Duration : 1h 51mn
Bit rate mode : Variable
Bit rate : 122 Kbps
Minimum bit rate : 128 Kbps
Channel(s) : 2 channels
Sampling rate : 48.0 KHz
Resolution : 16 bits
Stream size : 96.9 MiB (14%)
Alignment : Aligned on interleaves
Interleave, duration : 24 ms (0.58 video frame)
Interleave, preload duration : 492 ms
Writing library : LAME3.98
Encoding settings : ABR



Please help your fellow pirates by seeding after download!

related torrents

Torrent name

health leech seeds Size
 


comments (0)

Main Menu