Horror

FrankenHooker (UNCUT) [DVDRip] [XviD] By [KooKoo] [h33t]

  • Download 5x Faster
  • Download torrent
  • Direct Download
  • Rate this torrent +  |  -

Torrent info

Name:FrankenHooker (UNCUT) [DVDRip] [XviD] By [KooKoo] [h33t]

Total Size: 746.89 MB

Magnet: Magnet Link

Seeds: 0

Leechers: 0

Stream: Watch Full Movie @ Movie4u

Last Updated: 2012-12-22 05:07:45 (Update Now)

Torrent added: 2009-08-27 20:21:52



VPN For Torrents

Torrent Files List


FrankenHooker (UNCUT) [DVDRip] [XviD] By [KooKoo] [h33t].avi (Size: 746.89 MB) (Files: 5)

 FrankenHooker (UNCUT) [DVDRip] [XviD] By [KooKoo] [h33t].avi

744.34 MB

 KooKoo.txt

13.97 KB

 MoviePoster

  323732303436.jpg

114.84 KB

 Screenshots

  FrankenhookerScreenshots.bmp

2.42 MB

 tracked_by_h33t_com.txt

0.02 KB
 

Announce URL:

Torrent description

Frankenhooker (1990)
_______________________________________________________________________________________________________________________

Genre: Comedy, Cult Film / TV, Hookers, Horror

_______________________________________________________________________________________________________________________
Synopsis:

The Frankenstein legend gets stitched up by the makers of Basket Case and Brain Damage in this
outrageous horror comedy. When his pretty fiancée \"goes to pieces\" under the blades of a runaway
lawnmower, aspiring mad scientist Jeffrey Franken hatches an unorthodox scheme to bring his beloved
back to life. He reassembles his girlfriend from the body parts of New York prostitutes. But his dream girl
runs amok on 42nd Street, turning tricks that literally make people\'s heads spin. Can Jeffrey still find true
love? Or has he created a monster?
________________________________________________________________________________________________________________________
IMDB URL: http://www.imdb.com/title/tt0099611/

________________________________________________________________________________________________________________________
DVD source Information:

Unearthed Films ~ NR ~ 85mins. ~ Release Date: 1/8/2008 ~ Prod Year: 1990

http://www.dvdempire.com/Exec/v4_item.asp?userid=99366344675575&item_id=1246085&searchID=47042
_________________________________________________________________________________________________________________________


_________________________________________________________________________________________________________________________

File Verified With MediaInfo:
-----------------------------------------------------------------------------------------------------------------------------
General
Complete name: FrankenHooker (UNCUT) [DVDRip] [XviD] By [KooKoo] [h33t].avi
Format: AVI
Format/Info: Audio Video Interleave
File size: 744 MiB
Duration: 1h 24mn
Overal bit rate: 1236 Kbps
Movie name: Frank Henenlotter\'s : \"FrankenHooker\"
Director: Ripped By KooKoo
Writing application: Lavf51.19.0
Product: DVD_VOLUME

Video
Format: MPEG-4 Visual
Format profile: [email protected]
Format settings, BVOP: No
Format settings, QPel: No
Format settings, GMC: No warppoints
Format settings, Matrix: Default
Codec ID: XVID
Codec ID/Hint: XviD
Duration: 1h 24mn
Bit rate: 1095 Kbps
Width: 624 pixels
Height: 352 pixels
Display aspect ratio: 16/9
Frame rate: 23.976 fps
Resolution: 8 bits
Colorimetry: 4:2:0
Scan type: Progressive
Bits/(Pixel*Frame): 0.208
Stream size: 660 MiB
Writing library: XviD 1.1.2 (UTC 2006-11-01)

Audio
Format: MPEG Audio
Format version: Version 1
Format profile: Layer 3
Codec ID: 55
Codec ID/Hint: MP3
Duration: 1h 24mn
Bit rate mode: Constant
Bit rate: 128 Kbps
Channel(s): 2 channels
Sampling rate: 48.0 KHz
Resolution: 16 bits
Stream size: 77.1 MiB
Writing library: LAME3.97

******************************
Language: English
******************************

******************************
Subtitles: No
******************************

******************************
Close Captioning: No
******************************


Ripped by KooKoo, tracked by h33t_com
Come visit me at h33t for more rare movies.


related torrents

Torrent name

health leech seeds Size
 


comments (0)

Main Menu

 

script data-cfasync="false" src="//d2ghscazvn398x.cloudfront.net/?cshgd=690275">