Horror

Eye Of The Beast 2007 DVDRip XviD La Vela

  • Download 5x Faster
  • Download torrent
  • Direct Download
  • Rate this torrent +  |  -
Eye Of The Beast 2007 DVDRip XviD La Vela

Anonymous and Direct Download 300GB+ free


Torrent info

Name:Eye Of The Beast 2007 DVDRip XviD La Vela

Total Size: 700.76 MB

Magnet: Magnet Link

Seeds: 0

Leechers: 1

Stream: Watch Online @ Movie4u

Last Updated: 2015-09-09 14:40:46 (Update Now)

Torrent added: 2009-08-27 20:04:08




Torrent Files List


303.jpg (Size: 700.76 MB) (Files: 5)

 303.jpg

461.46 KB

 a4r5nt.jpg

125.62 KB

 Eye.Of.The.Beast.2007.DVDRip.XviD-La.Vela.avi

700.18 MB

 READ ME.txt

2.45 KB

 Torrent downloaded from Demonoid.com.txt

0.05 KB
 

tracker

leech seeds
 

Torrent description

<pre class="nfo">General

Complete name : Eye.Of.The.Beast.2007.DVDRip.XviD-La.Vela.avi
Imbd : http://www.imdb.com/title/tt0867286/
Genre : Horror
Language : English
Subtitles : N/A
Format : AVI
Format/Info : Audio Video Interleave
File size : 700 MiB
Duration : 1h 30mn
Overall bit rate : 1 086 Kbps
Writing application : VirtualDubMod 1.5.10.2 (build 2540/release)
Writing library : VirtualDubMod build 2540/release

Video
Format : MPEG-4 Visual
Format profile : Streaming [email protected]
Format settings, BVOP : Yes
Format settings, QPel : No
Format settings, GMC : No warppoints
Format settings, Matrix : Standaard
Muxing mode : Packed bitstream
Codec ID : XVID
Codec ID/Hint : XviD
Duration : 1h 30mn
Bit rate : 953 Kbps
Width : 640 pixels
Height : 352 pixels
Display aspect ratio : 16/9
Frame rate : 23,976 fps
Resolution : 24 bits
Colorimetry : 4:2:0
Scan type : Progressive
Bits/(Pixel*Frame) : 0.176
Stream size : 614 MiB (88%)
Writing library : XviD 1.2.0.dev47 (UTC 2006-11-01)

Audio
Format : MPEG Audio
Format version : Version 1
Format profile : Layer 3
Codec ID : 55
Codec ID/Hint : MP3
Duration : 1h 30mn
Bit rate mode : Variabel
Bit rate : 120 Kbps
Nominal bit rate : 128 Kbps
Channel(s) : 2 channels
Sampling rate : 48,0 KHz
Resolution : 16 bits
Stream size : 77,5 MiB (11%)
Alignment : Uitgelijnd op interleaves
Interleave, duration : 24 ms (0,58 videoframes)
Interleave, preload duration : 153 ms
Writing library : LAME3.90.
Encoding settings : ABR

</pre>

related torrents

Torrent name

health leech seeds Size
 


comments (0)

Main Menu