Horror

EVIL ALIENS (2005) DD 5 1 Subs FIN SWE NO DK XviD *DM*

  • Download 5x Faster
  • Download torrent
  • Direct Download
  • Rate this torrent +  |  -
EVIL ALIENS (2005) DD 5 1 Subs FIN SWE NO DK XviD *DM*

Anonymous and Free Direct Download


Torrent info

Name:EVIL ALIENS (2005) DD 5 1 Subs FIN SWE NO DK XviD *DM*

Total Size: 988.05 MB

Magnet: Magnet Link

Seeds: 0

Leechers: 1

Stream: Watch Online @ Movie4u

Last Updated: 2015-08-31 03:59:56 (Update Now)

Torrent added: 2009-08-27 19:58:29



VPN For Torrents

Torrent Files List


EVIL ALIENS.avi (Size: 988.05 MB) (Files: 9)

 EVIL ALIENS.avi

987.45 MB

 EVIL ALIENS.Danish.srt

38.53 KB

 EVIL ALIENS.Finnish.srt

38.76 KB

 EVIL ALIENS.Norwegian.srt

38.21 KB

 EVIL ALIENS.Swedish.srt

38.55 KB

 evil aliens_emily booth.jpg

25.40 KB

 evil-aliens-poster.jpg

39.71 KB

 evilaliens_fin_swe.jpg

158.44 KB

 evilaliens_us.jpg

239.93 KB
 

tracker

leech seeds
 

Torrent description

EVIL ALIENS (2005) Genre: Comedy, Horror, Gore, Sci-Fi.

Thanks to England for this brilliant movie! I really like this one very much.

Aliens, Tits, Gore, Crazy pesants, UFO's, SEX ... all good ingredients to start

with and perfectly mixed here! Just had to love this movie! And so do many others

too... Read info here. Link:
http://www.imdb.com/title/tt0383353/ and user comments here:

http://www.imdb.com/title/tt0383353/usercomments

-------------------------------------------------------------------------------------

Xvid encoding done by me yesterday with FairUse Wizard 2.9. Slowest/best quality encoding settings (2-pass vbr, slowest encoding, quality based) and the original 5.1 DD sound ripped as it is originally (no compression).
All subs made by me today with SubRip and yes they are in .srt so you can watch them on your standalone Dvd-Divx player as well !!! Works perfectly (tested).

Dvd......... Retail PAL Dvd ripped with DvdFab
Audio....... English 5.1 DolbyDigital AC3 (Original)
Subs........ FIN NO DK SWE in .srt (PC and TV compatible with Dvd-player)
XviD......... 1086 kbps (very good qty. Full Dvd-quality is always my only goal)
Resolution... 640x352 (16/9 Full Frame Widescreen)

------------------------------------------------------------------------------------

I HAVE ADDED MANY OTHER MOVIES LATELY !!! MANY GOOD SEEDERS (Thanks to All of

You !!!) LINK:

http://thepiratebay.org/user/DigieraMandela/

----------------------------------------------------------------------------------
SUOMEKSI:

Moi kaikki! Olen käyttänyt viikon ajan tässä saadakseni laadun kaikkein korkeimmaksi jatkossa! Unohda ne axxot ja klaxxonit. Tässä on suomalaista laatua sinulle suomalainen ja jatkossa aina DD 5.1 äänellä !!! Tsekkaa muut filmit - linkki tuossa muutama rivi ylempänä. Ja keneltä muulta saisit aina Suomi-tekstit parhaaassa .srt muodossa ? Minulta saat ja toimivat aina täydellisesti, koska olen itse ne huolella valmistanut ja aina myös itse testannut !

EVIL ALIENS + .srt-tekstit suomeksi (Tein kaiken itse eilen!). Näkyy TV:ssä Divx-Dvd-soittimella kun vain muistat nimetä filmin ja tekstityksen täsmälleen samaksi. Esim: FROSTBITE.avi ja FROSTBITE.srt ja tallenna ne dvd:lle ja johan toimii upeasti. Vain kaikkein uusimmat Dvd-soittimet kuten Pioneer 2008 joka minulla on, hyväksyy jopa sen että tekstiosan tallentaa näin:
FROSTBITE.Finnish.srt (mutta vanhemmat soittimet eivät tunnista jos noin!).
----------------------------------------------------------------------------------

PÅ SVENSKA:

EVIL ALIENS + .srt texter på svenska (Allt gjort av mig!). Kan ses på TV med din Divx-Dvd-spelare bara du minns att namnge filmen och text-filen exakt detsamma: tex. FROSTBITE.avi och FROSTBITE.srt och sedan bränna på DVD.
De allra nyaste DVD-spelarna som min Pioneer 2008 model, kan visa texterna även så här: FROSTBITE.Swedish.srt (men som sagt så kan man inte göra med äldre
modeller !)

----------------------------------------------------------------------------------

LOG:

General
Complete name : H:AVI movies 5.1 sound XviD DivX ac-3EVIL ALIENS xvid ac3 slowestEVIL ALIENS.avi
Format : AVI
Format/Info : Audio Video Interleave
File size : 987 MiB
Duration : 1h 29mn
Overall bit rate : 1 544 Kbps
Writing application : VirtualDubMod 1.5.10.2 (build 2540/release)
Writing library : VirtualDubMod build 2540/release

Video
Format : MPEG-4 Visual
Format profile : Streaming [email protected]
Format settings, BVOP : Yes
Format settings, QPel : No
Format settings, GMC : No warppoints
Format settings, Matrix : Default (MPEG)
Muxing mode : Packed bitstream
Codec ID : XVID
Codec ID/Hint : XviD
Duration : 1h 29mn
Bit rate : 1 086 Kbps
Width : 640 pixels
Height : 352 pixels
Display aspect ratio : 16/9
Frame rate : 25.000 fps
Resolution : 24 bits
Colorimetry : 4:2:0
Scan type : Progressive
Bits/(Pixel*Frame) : 0.193
Stream size : 695 MiB (70%)
Writing library : XviD 1.2.0.dev47 (UTC 2006-11-01)

Audio
Format : AC-3
Format/Info : Audio Coding 3
Codec ID : 2000
Duration : 1h 29mn
Bit rate mode : Constant
Bit rate : 448 Kbps
Channel(s) : 6 channels
Channel positions : Front: L C R, Surround: L R, LFE
Sampling rate : 48.0 KHz
Stream size : 286 MiB (29%)
Alignment : Split accross interleaves
Interleave, duration : 40 ms (1.00 video frame)
Interleave, preload duration : 500 ms

related torrents

Torrent name

health leech seeds Size
 


comments (0)

Main Menu