Horror

Dollman Vs Demonic Toys 1993 DvdRip [

  • Download 5x Faster
  • Download torrent
  • Direct Download
  • Rate this torrent +  |  -
Dollman Vs Demonic Toys 1993 DvdRip [

Anonymous and Direct Download 300GB+ free


Torrent info

Name:Dollman Vs Demonic Toys 1993 DvdRip [

Total Size: 455.75 MB

Magnet: Magnet Link

Seeds: 0

Leechers: 0

Stream: Watch Online @ Movie4u

Last Updated: 2010-11-29 17:30:07 (Update Now)

Torrent added: 2009-08-27 19:28:31




Torrent Files List


Dollman vs Demonic Toys.nfo (Size: 455.75 MB) (Files: 34)

 Dollman vs Demonic Toys.nfo

1.47 KB

 Dollman vs Demonic Toys.sfv

3.84 KB

 Dollman.vs.Demonic toys.part01.rar

14.31 MB

 Dollman.vs.Demonic toys.part02.rar

14.31 MB

 Dollman.vs.Demonic toys.part03.rar

14.31 MB

 Dollman.vs.Demonic toys.part04.rar

14.31 MB

 Dollman.vs.Demonic toys.part05.rar

14.31 MB

 Dollman.vs.Demonic toys.part06.rar

14.31 MB

 Dollman.vs.Demonic toys.part07.rar

14.31 MB

 Dollman.vs.Demonic toys.part08.rar

14.31 MB

 Dollman.vs.Demonic toys.part09.rar

14.31 MB

 Dollman.vs.Demonic toys.part10.rar

14.31 MB

 Dollman.vs.Demonic toys.part11.rar

14.31 MB

 Dollman.vs.Demonic toys.part12.rar

14.31 MB

 Dollman.vs.Demonic toys.part13.rar

14.31 MB

 Dollman.vs.Demonic toys.part14.rar

14.31 MB

 Dollman.vs.Demonic toys.part15.rar

14.31 MB

 Dollman.vs.Demonic toys.part16.rar

14.31 MB

 Dollman.vs.Demonic toys.part17.rar

14.31 MB

 Dollman.vs.Demonic toys.part18.rar

14.31 MB

 Dollman.vs.Demonic toys.part19.rar

14.31 MB

 Dollman.vs.Demonic toys.part20.rar

14.31 MB

 Dollman.vs.Demonic toys.part21.rar

14.31 MB

 Dollman.vs.Demonic toys.part22.rar

14.31 MB

 Dollman.vs.Demonic toys.part23.rar

14.31 MB

 Dollman.vs.Demonic toys.part24.rar

14.31 MB

 Dollman.vs.Demonic toys.part25.rar

14.31 MB

 Dollman.vs.Demonic toys.part26.rar

14.31 MB

 Dollman.vs.Demonic toys.part27.rar

14.31 MB

 Dollman.vs.Demonic toys.part28.rar

14.31 MB

 Dollman.vs.Demonic toys.part29.rar

14.31 MB

 Dollman.vs.Demonic toys.part30.rar

14.31 MB

 Dollman.vs.Demonic toys.part31.rar

14.31 MB

 Dollman.vs.Demonic toys.part32.rar

12.29 MB
 

Announce URL: http://tracker.ilovetorrents.com/announce.php

Torrent description

General
Complete name : C:\Torrent Creation\Dollman Vs. Demonic Toys\Dollman.vs.Demonic toys.avi
Format : AVI
Format/Info : Audio Video Interleave
File size : 456 MiB
Duration : 1h 6mn
Overal bit rate : 960 Kbps
Writing library : VirtualDub-MPEG2 build 16616/release

Video
Format : MPEG-4 Visual
Codec ID : DIV3
Codec ID/Hint : DivX 3 Low
Duration : 1h 6mn
Bit rate : 820 Kbps
Width : 320 pixels
Height : 240 pixels
Display aspect ratio : 4/3
Frame rate : 29.970 fps
Resolution : 24 bits
Bits/(Pixel*Frame) : 0.356
Stream size : 390 MiB

Audio
Format : MPEG Audio
Format version : Version 1
Format profile : Layer 3
Codec ID : 55
Codec ID/Hint : MP3
Duration : 1h 6mn
Bit rate mode : Constant
Bit rate : 128 Kbps
Channel(s) : 2 channels
Sampling rate : 44.1 KHz
Resolution : 16 bits
Stream size : 60.6 MiB

Link: http://www.imdb.com/title/tt0106743/

related torrents

Torrent name

health leech seeds Size

Dollman vs Demonic Toys

6 0 700.02 MB 0
 


comments (0)

Main Menu