Horror

Die Vögel uncut 2008 German DVDRip XviD

  • Download 5x Faster
  • Download torrent
  • Direct Download
  • Rate this torrent +  |  -
Die Vögel uncut 2008 German DVDRip XviD

Free and Direct Download with Usenet.nl 300GB+ free


Torrent info

Name:Die Vögel uncut 2008 German DVDRip XviD

Total Size: 696.85 MB

Magnet: Magnet Link

Seeds: 0

Leechers: 0

Stream: Watch Online @ Movie4u

Last Updated: 2010-07-27 16:21:21 (Update Now)

Torrent added: 2009-08-27 19:25:28





Torrent Files List


DIE.VOEGEL.Attack.From.Above (Size: 696.85 MB) (Files: 3)

 DIE.VOEGEL.Attack.From.Above

  Die.Voegel.Attack.from.Abov.avi

696.84 MB

 Ibfo.txt

2.58 KB

 t-48532-1.jpg

9.09 KB
 

Announce URL: http://irrenhaus.dyndns.dk/announce.php

Torrent description




Ausgerechnet an seinem offiziell letzten Arbeitstag erwartet das volle
Programm den jungen Dorfsheriff Wayne. In der Scheune liegt übel zerzaust
ein toter Landwirt, auf der Bundesstraße sterben schreiende Menschen im
brennenden Autowrack, und im liegengebliebenen Schulbus harrt die
Dorfjugend der Rettung durch Bewaffnete. Als Verursacher sämtlicher
Vorfälle entpuppen sich Schwärme aggressiver Rabenvögel. Bewaffnet
mit Schrotflinte und Baseballschläger nehmen Wayne und Busfahrer
Clyde den Kampf auf...

Horrorfilm Uncut
FSK: keine Jugendfreigabe
Sprache: Deutsch
Länge: Ca 88 Minuten
Auflösung: 576X320
Videobitrate: 957 Kbps
Audiobitrate: 129 Kbps
Format : AVI
Format/Info : Audio Video Interleave
Dateigröße : 697 MiB
Duration : 1h 28min
Gesamte Bitrate : 1098 Kbps
Verwendetes Programm : VirtualDubMod 1.5.10.2 (build 2540/release)
verwendete Encoder-Bibliothek : VirtualDubMod build 2540/release

Video
Format : MPEG-4 Visual
Format profile : Streaming [email protected]
Format settings, BVOP : Ja
Format settings, QPel : Nein
Format settings, GMC : No warpoints
Format settings, Matrix : Default
Codec ID : XVID
Codec ID/Hint : XviD
Duration : 1h 28min
Bitrate : 957 Kbps
Breite : 576 Pixel
Höhe : 320 Pixel
Bildseitenverhältnis : 16/9
Bildwiederholungsrate : 25.000 FPS
Auflösung : 8 bits
Colorimetry : 4:2:0
Scan type : Progressive
Bits/(Pixel*Frame) : 0.208
Stream size : 607 MiB
verwendete Encoder-Bibliothek : XviD 1.1.2 (UTC 2006-11-01)

Audio
Format : MPEG Audio
Format version : Version 1
Format profile : Layer 3
Codec ID : 55
Codec ID/Hint : MP3
Duration : 1h 28min
Bitraten-Modus : Variable
Bitrate : 129 Kbps
Nominal bit rate : 128 Kbps
Kanäle : 2 Kanäle
Samplingrate : 48.0 KHz
Auflösung : 16 bits
Stream size : 81.7 MiB
verwendete Encoder-Bibliothek : LAME3.90.
Kodierungseinstellungen : ABR

bigTHX @ Ghoul

related torrents

Torrent name

health leech seeds Size
 

comments (0)

Main Menu