Horror

Der Musterschueler von Stephen King Deutsch 1999 Xvid [mnvv2 info]

  • Download 5x Faster
  • Download torrent
  • Direct Download
  • Rate this torrent +  |  -

Torrent info

Name:Der Musterschueler von Stephen King Deutsch 1999 Xvid [mnvv2 info]

Total Size: 502.83 MB

Magnet: Magnet Link

Seeds: 0

Leechers: 0

Stream: Watch Online @ Movie4u

Last Updated: 2015-09-05 09:04:45 (Update Now)

Torrent added: 2009-08-27 19:15:56



VPN For Torrents

Torrent Files List


51EJCVDEW1L._SL500_AA240_.jpg (Size: 502.83 MB) (Files: 3)

 51EJCVDEW1L._SL500_AA240_.jpg

11.98 KB

 Film.avi

502.81 MB

 Info.txt

2.63 KB
 

tracker

leech seeds
 

Torrent description

Der.Musterschueler.von.Stephen.King.Deutsch.1999.Xvid
Der Musterschueler Nach der Erzaehlung von Stephen King


# Darsteller: Sir Ian McKellen, Brad Renfro, Bruce Davison
# Regisseur(e): Bryan Singer
# FSK: Freigegeben ab 16 Jahren
# Studio: Sony Pictures Home Entertainment
# DVD-Erscheinungstermin: 7. Dezember 1999
# Produktionsjahr: 1998
# Spieldauer: 107 Minuten

Die Grundlage dieses Films bildet Stephen Kings echtes Talent dazu, Monster aus alltäglichen Gesichtern und Orten herauszuholen
Der 16-jährige High-School Absolvent Todd Bowden hat ein tödliches Geheimnis entdeckt ungestört lebt der Kriegsverbrecher Kurt Dussander mitten in der kleinen Stadt. Todd beginnt, den Mann zu erpressen er will über Dussanders mörderische Vergangenheit schweigen - sofern der ihm seine Greueltaten in allen Details schildert. Doch schnell gerät diese seltsame Beziehung ausser Kontrolle und Todds Leben hängt am seidenen Faden


Format : AVI
Format/Info : Audio Video Interleave
Dateigre : 503 MiB
Duration : 1h 46min
Gesamte Bitrate : 659 Kbps
Verwendetes Programm : MEncoder Sherpya-SVN-r25962-4.2.3
verwendete Encoder-Bibliothek : MPlayer

Video
Format : MPEG-4 Visual
Format profile : [email protected]
Format settings, BVOP : Nein
Format settings, QPel : Nein
Format settings, GMC : No warpoints
Format settings, Matrix : Default
Codec ID : XVID
Codec ID/Hint : XviD
Duration : 1h 46min
Bitrate : 523 Kbps
Breite : 320 Pixel
Höhe : 240 Pixel
Bildseitenverhältnis : 4/3
Bildwiederholungsrate : 25.000 FPS
Auflösung : 8 bits
Colorimetry : 4:2:0
Scan type : Progressive
Bits/(Pixel*Frame) : 0.272
Stream size : 399 MiB
verwendete Encoder-Bibliothek : XviD 1.1.2 (UTC 2006-11-01)

Audio
Format : MPEG Audio
Format version : Version 1
Format profile : Layer 3
Codec ID : 55
Codec ID/Hint : MP3
Duration : 1h 46min
Bitraten-Modus : Variable
Bitrate : 124 Kbps
Kanäle : 2 Kanäle
Samplingrate : 44.1 KHz
Auflösung : 16 bits
Stream size : 94.4 MiB

related torrents

Torrent name

health leech seeds Size
 


comments (0)

Main Menu