Horror

Demonic Toys 1992 DvdRip [

  • Download 5x Faster
  • Download torrent
  • Direct Download
  • Rate this torrent +  |  -
Demonic Toys 1992 DvdRip [

Anonymous and Direct Download 300GB+ free


Torrent info

Name:Demonic Toys 1992 DvdRip [

Total Size: 697.16 MB

Magnet: Magnet Link

Seeds: 0

Leechers: 0

Stream: Watch Online @ Movie4u

Last Updated: 2011-10-15 00:36:46 (Update Now)

Torrent added: 2009-08-27 19:14:36




Torrent Files List


Demonic Toys.nfo (Size: 697.16 MB) (Files: 51)

 Demonic Toys.nfo

2.46 KB

 Demonic Toys.part01.rar

14.31 MB

 Demonic Toys.part02.rar

14.31 MB

 Demonic Toys.part03.rar

14.31 MB

 Demonic Toys.part04.rar

14.31 MB

 Demonic Toys.part05.rar

14.31 MB

 Demonic Toys.part06.rar

14.31 MB

 Demonic Toys.part07.rar

14.31 MB

 Demonic Toys.part08.rar

14.31 MB

 Demonic Toys.part09.rar

14.31 MB

 Demonic Toys.part10.rar

14.31 MB

 Demonic Toys.part11.rar

14.31 MB

 Demonic Toys.part12.rar

14.31 MB

 Demonic Toys.part13.rar

14.31 MB

 Demonic Toys.part14.rar

14.31 MB

 Demonic Toys.part15.rar

14.31 MB

 Demonic Toys.part16.rar

14.31 MB

 Demonic Toys.part17.rar

14.31 MB

 Demonic Toys.part18.rar

14.31 MB

 Demonic Toys.part19.rar

14.31 MB

 Demonic Toys.part20.rar

14.31 MB

 Demonic Toys.part21.rar

14.31 MB

 Demonic Toys.part22.rar

14.31 MB

 Demonic Toys.part23.rar

14.31 MB

 Demonic Toys.part24.rar

14.31 MB

 Demonic Toys.part25.rar

14.31 MB

 Demonic Toys.part26.rar

14.31 MB

 Demonic Toys.part27.rar

14.31 MB

 Demonic Toys.part28.rar

14.31 MB

 Demonic Toys.part29.rar

14.31 MB

 Demonic Toys.part30.rar

14.31 MB

 Demonic Toys.part31.rar

14.31 MB

 Demonic Toys.part32.rar

14.31 MB

 Demonic Toys.part33.rar

14.31 MB

 Demonic Toys.part34.rar

14.31 MB

 Demonic Toys.part35.rar

14.31 MB

 Demonic Toys.part36.rar

14.31 MB

 Demonic Toys.part37.rar

14.31 MB

 Demonic Toys.part38.rar

14.31 MB

 Demonic Toys.part39.rar

14.31 MB

 Demonic Toys.part40.rar

14.31 MB

 Demonic Toys.part41.rar

14.31 MB

 Demonic Toys.part42.rar

14.31 MB

 Demonic Toys.part43.rar

14.31 MB

 Demonic Toys.part44.rar

14.31 MB

 Demonic Toys.part45.rar

14.31 MB

 Demonic Toys.part46.rar

14.31 MB

 Demonic Toys.part47.rar

14.31 MB

 Demonic Toys.part48.rar

14.31 MB

 Demonic Toys.part49.rar

10.50 MB

 Demonic Toys.sfv

4.71 KB
 

Announce URL:

Torrent description

General
Complete name : C:\Torrent Creation\Demonic Toys\Demonic Toys.avi
Format : AVI
Format/Info : Audio Video Interleave
File size : 697 MiB
Duration : 1h 19mn
Overal bit rate : 1224 Kbps
Movie name : Demonic Toys (1992) INFECT
Director : HHAH-PROPER by INFECT
Subject : Demonic Toys (1992) INFECT
Writing application : Nandub v1.0rc2
Writing library : Nandub build 1852/release
Copyright : Demonic.Toys.1992.HHAH-PROPER.DVDrip.Xvid-INFECT.avi
Comment : Re-rip from PAL dvd to sort out the bad rip that was released previously (bad deinterlacing/cropping). Released for HHAH.

Video
Format : MPEG-4 Visual
Format profile : Streaming [email protected]
Format settings, BVOP : Yes
Format settings, QPel : No
Format settings, GMC : No warppoints
Format settings, Matrix : Default
Muxing mode : Packet Bitstream
Codec ID : XVID
Codec ID/Hint : XviD
Duration : 1h 19mn
Bit rate : 1094 Kbps
Width : 640 pixels
Height : 480 pixels
Display aspect ratio : 4/3
Frame rate : 25.000 fps
Resolution : 8 bits
Colorimetry : 4:2:0
Scan type : Progressive
Bits/(Pixel*Frame) : 0.142
Stream size : 623 MiB
Writing library : XviD 1.0.1 (UTC 2004-06-05)

Audio
Format : MPEG Audio
Format version : Version 1
Format profile : Layer 3
Codec ID : 55
Codec ID/Hint : MP3
Duration : 1h 19mn
Bit rate mode : Variable
Bit rate : 117 Kbps
Nominal bit rate : 128 Kbps
Channel(s) : 2 channels
Sampling rate : 48.0 KHz
Resolution : 16 bits
Stream size : 66.6 MiB
Writing library : LAME3.90.
Encoding settings : ABR

Link: http://www.imdb.com/title/tt0104083/

related torrents

Torrent name

health leech seeds Size

Demonic Toys [1992] avi

0 0 699.54 MB 0
 


comments (0)

Main Menu