Horror

DeadGirl[2009]DvDrip LW

  • Download 5x Faster
  • Download torrent
  • Direct Download
  • Rate this torrent +  |  -
DeadGirl[2009]DvDrip LW

Anonymous and Direct Download 300GB+ free


Torrent info

Name:DeadGirl[2009]DvDrip LW

Total Size: 701.00 MB

Magnet: Magnet Link

Seeds: 8

Leechers: 4

Stream: Watch Online @ Movie4u

Last Updated: 0000-00-00 00:00:00 (Update Now)

Torrent added: 2009-08-27 19:07:56




Torrent Files List


Covers (Size: 701.00 MB) (Files: 5)

 Covers

  DvD Cover.jpg

25.44 KB

  Poster.jpg

20.46 KB

 Movie

  DeadGirl[2009]DvDrip-LW.avi

700.96 MB

 Movie Info

  Movie Info.txt

3.43 KB

 Trackers

  tracked_by_h33t_com.txt

0.02 KB
 

Announce URL: http://www.h33t.com:3310/announce

Torrent description

-------------------------------------------------
F I L E - I N F O
-------------------------------------------------
TITLE......[ DeadGirl
YEAR.......[ 2009
GENRE......[ Horror
RUNTIME....[ 01:42:59
STORE DATE.[ July 2009 (USA)
IMDB RATE..[ 6.4/10 (149 Votes)
IMDB URL...[ http://www.imdb.com/title/tt0896534/
-------------------------------------------------
Format : AVI
Format/Info : Audio Video Interleave
File size : 701 MiB
Duration : 1h 37mn
Overall bit rate : 1 005 Kbps
Writing application : VirtualDubMod 1.5.10.2 (build 2540/release)
Writing library : VirtualDubMod build 2540/release
SOURCE : DVD
-------------------------------------------------
V I D E O
-------------------------------------------------
Format : MPEG-4 Visual
Format profile : Streaming [email protected]
Format settings, BVOP : Yes
Format settings, QPel : No
Format settings, GMC : No warppoints
Format settings, Matrix : Default (H.263)
Muxing mode : Packed bitstream
Codec ID : XVID
Codec ID/Hint : XviD
Duration : 1h 37mn
Bit rate : 884 Kbps
Width : 640 pixels
Height : 272 pixels
Display aspect ratio : 2.35
Frame rate : 25.000 fps
Resolution : 24 bits
Colorimetry : 4:2:0
Scan type : Progressive
Bits/(Pixel*Frame) : 0.203
Stream size : 616 MiB (88%)
Writing library : XviD 1.2.1
-------------------------------------------------
A U D I O
-------------------------------------------------
Format : MPEG Audio
Format version : Version 1
Format profile : Layer 3
Codec ID : 55
Codec ID/Hint : MP3
Duration : 1h 37mn
Bit rate mode : Variable
Bit rate : 109 Kbps
Channel(s) : 2 channels
Sampling rate : 48.0 KHz
Resolution : 16 bits
Video delay : 984ms
Stream size : 75.7 MiB (11%)
Alignment : Split accross interleaves
Interleave, duration : 24 ms (0.60 video frame)
Interleave, preload duration : 1782 ms
Writing library : LAME3.93
Encoding settings : VBR
-------------------------------------------------
P L O T
-------------------------------------------------
After skipping school and breaking into the boiler
room of a deserted mental hospital, buddies Rickie
(Shiloh Fernandez) and JT (Noah Segan) make a shocking
discovery: the plastic-covered naked body of a woman
lying on a gurney. When they realize that the woman
may be alive, JT shocks Rickie by suggesting they
take advantage of her. But all is not as it seems
in this dark thriller: The door to the boiler
room had been rusted shut for years.

Starring: Shiloh Fernandez, Noah Segan

Director: Marcel Sarmiento
-------------------------------------------------

related torrents

Torrent name

health leech seeds Size
 


comments (0)

Main Menu