Horror

Dawn Of The Dead (1978) Directors Cut (AC 3)

  • Download 5x Faster
  • Download torrent
  • Direct Download
  • Rate this torrent +  |  -
Dawn Of The Dead (1978) Directors Cut (AC 3)

Free and Direct Download with Usenet 300GB+ free


Torrent info

Name:Dawn Of The Dead (1978) Directors Cut (AC 3)

Total Size: 999.68 MB

Magnet: Magnet Link

Seeds: 0

Leechers: 0

Stream: Watch Online @ Movie4u

Last Updated: 0000-00-00 00:00:00 (Update Now)

Torrent added: 2009-08-27 18:51:11




Torrent Files List


Dawn Of The Dead (1978).avi (Size: 999.68 MB) (Files: 2)

 Dawn Of The Dead (1978).avi

999.68 MB

 Torrent downloaded from Demonoid.com.txt

0.05 KB
 

Announce URL: http://inferno.demonoid.com:3407/announce

Torrent description

Following the events of Night of the Living Dead (1968), we follow the exploits of four survivors of the expanding zombie apocalypse as they take refuge in an abandoned shopping mall following a horrific SWAT evacuation of an apartment complex. Taking stock of their surroundings, they arm themselves, lock down the mall, and destroy the zombies inside so they can eke out a living--at least for a while. Tensions begin to build as months go on, however, when they come to realize that they've fallen prey to consumerism. Soon afterward, they have even heavier problems to worry about, as a large gang of bikers discovers the mall and invades it, ruining the survivors' best-laid plans and forcing them to fight off both lethal bandits and flesh-eating zombies.


IMDB Rating 8.0/10 (34,721 votes)


General
Complete name : Dawn Of The Dead (1978).avi
Format : AVI
Format/Info : Audio Video Interleave
File size : 1 000 MiB
Duration : 2h 19mn
Overall bit rate : 1 002 Kbps
Writing application : VirtualDubMod 1.5.4.1 (build 2178/release)
Writing library : VirtualDubMod build 2178/release

Video
Format : MPEG-4 Visual
Format profile : Streaming [email protected]
Format settings, BVOP : Yes
Format settings, QPel : No
Format settings, GMC : No warppoints
Format settings, Matrix : Custom
Codec ID : XVID
Codec ID/Hint : XviD
Duration : 2h 19mn
Bit rate : 739 Kbps
Width : 528 pixels
Height : 400 pixels
Display aspect ratio : 4/3
Frame rate : 25.000 fps
Resolution : 24 bits
Colorimetry : 4:2:0
Scan type : Progressive
Bits/(Pixel*Frame) : 0.140
Stream size : 737 MiB (74%)
Writing library : XviD 1.2.1 (UTC 2008-12-04)

Audio
Format : AC-3
Format/Info : Audio Coding 3
Codec ID : 2000
Duration : 2h 19mn
Bit rate mode : Constant
Bit rate : 256 Kbps
Channel(s) : 2 channels
Channel positions : L R
Sampling rate : 48.0 KHz
Stream size : 255 MiB (26%)
Alignment : Aligned on interleaves
Interleave, duration : 96 ms (2.40 video frames)
Interleave, preload duration : 96 ms


Please help your fellow pirates by seeding after download!

related torrents

Torrent name

health leech seeds Size
 

comments (0)

Main Menu