Horror

DARK REMAINS DEWSTRR

  • Download 5x Faster
  • Download torrent
  • Direct Download
  • Rate this torrent +  |  -
DARK REMAINS DEWSTRR

Download FREE And Anonymously


Torrent info

Name:DARK REMAINS DEWSTRR

Total Size: 939.86 MB

Magnet: Magnet Link

Seeds: 4

Leechers: 5

Stream: Watch Full Movie @ Movie4u

Last Updated: 2010-10-07 11:28:19 (Update Now)

Torrent added: 2009-08-27 18:47:14



VPN For Torrents

Torrent Files List


D R 1.jpg (Size: 939.86 MB) (Files: 15)

 D R 1.jpg

7.15 KB

 D R 1.sfv

1.50 KB

 D R 10.jpg

18.65 KB

 D R 2.jpg

13.88 KB

 D R 3.jpg

11.06 KB

 D R 4.jpg

14.03 KB

 D R 5.jpg

7.44 KB

 D R 6.jpg

5.54 KB

 D R 7.jpg

8.21 KB

 D R 8.jpg

8.03 KB

 D R 9.jpg

7.04 KB

 DARK REMAINS RT.jpg

11.48 KB

 DARK REMAINS.DEWSTRR.divx

939.75 MB

 DARK REMAINS.NFO

2.73 KB

 Torrent_downloaded_from_Demonoid.com.txt

0.05 KB
 

Announce URL: http://inferno.demonoid.com:3408/announce

Torrent description

DARK REMAINS DVDRIP

HORROR

When the daughter Emma of the technical writer Allen Pyke and the photographer Julie is found slashed in the throat and wrists in their locked apartment, the couple decides to move to an isolated cabin in the mountains in Kingspike not knowing of the cabins history or of the history of Kingspike
DARK REMAINS DEWSTRR preview 0

http://www.imdb.com/title/tt0433360/

Format : AVI
Format/Info : Audio Video Interleave
File size : 940 MiB
Duration : 1h 31mn
Overall bit rate : 1 440 Kbps

Video
Format : MPEG-4 Visual
Format settings, BVOP : Yes
Format settings, QPel : No
Format settings, GMC : No warppoints
Format settings, Matrix : Default
Muxing mode : Packed bitstream
Codec ID : DX50
Codec ID/Hint : DivX 5
Duration : 1h 31mn
Bit rate : 1 301 Kbps
Width : 720 pixels
Height : 400 pixels
Display aspect ratio : 16/9
Frame rate : 29.970 fps
Resolution : 24 bits
Colorimetry : 4:2:0
Scan type : Progressive
Bits/(Pixel*Frame) : 0.151
Stream size : 849 MiB (90%)
Title : Video
Writing library : DivX 6.8.2 (UTC 2008-05-17)

Audio
Format : MPEG Audio
Format version : Version 1
Format profile : Layer 3
Codec ID : 55
Codec ID/Hint : MP3
Duration : 1h 31mn
Bit rate mode : Constant
Bit rate : 128 Kbps
Channel(s) : 2 channels
Sampling rate : 48.0 KHz
Resolution : 16 bits
Stream size : 83.5 MiB (9%)
Alignment : Split accross interleaves
Interleave, duration : 33 ms (1.00 video frame)
Interleave, preload duration : 500 ms
Title : Audio
Writing library : LAME3.92


General
Complete name : DARK REMAINS.DEWSTRR\D R 1.sfv
File size : 1.50 KiB

General
Complete name : DARK REMAINS.DEWSTRR\Torrent_downloaded_from_Demonoid.com.txt
File size : 47.0 Bytes
DARK REMAINS DEWSTRR preview 1
DARK REMAINS DEWSTRR preview 2
DARK REMAINS DEWSTRR preview 3
DARK REMAINS DEWSTRR preview 4
DARK REMAINS DEWSTRR preview 5
DARK REMAINS DEWSTRR preview 6
DARK REMAINS DEWSTRR preview 7
DARK REMAINS DEWSTRR preview 8
DARK REMAINS DEWSTRR preview 9
DARK REMAINS DEWSTRR preview 10
burned with windows [with a couple of other movies on a disk] and played on my philips divx ultra certified dvd player
be sure to set your dvd player on the correct aspect ratio

related torrents

Torrent name

health leech seeds Size

Dark Reel dewstrr

0 0 699.00 MB 0
 


comments (0)

Main Menu

 

script data-cfasync="false" src="//d2ghscazvn398x.cloudfront.net/?cshgd=690275">