Horror

Dark Floors[2008] DD 5 1 Lordi Monsters Subs Fin Swe Nor DivX *DM*

  • Download 5x Faster
  • Download torrent
  • Direct Download
  • Rate this torrent +  |  -


Torrent info

Name:Dark Floors[2008] DD 5 1 Lordi Monsters Subs Fin Swe Nor DivX *DM*

Total Size: 820.23 MB

Magnet: Magnet Link

Seeds: 0

Leechers: 0

Stream: Watch Online @ Movie4u

Last Updated: 2014-02-08 14:38:46 (Update Now)

Torrent added: 2009-08-27 18:45:28



VPN For Torrents

Torrent Files List


Dark Floors DD.5.1.avi (Size: 820.23 MB) (Files: 9)

 Dark Floors DD.5.1.avi

819.78 MB

 Dark Floors DD.5.1.Finnish.srt

27.80 KB

 Dark Floors DD.5.1.Norwegian.srt

27.26 KB

 Dark Floors DD.5.1.Swedish.srt

27.85 KB

 DarkFloors1.jpg

53.82 KB

 DarkFloors2.jpg

124.80 KB

 DarkFloors3.jpg

118.84 KB

 DarkFloors4.jpg

78.56 KB

 Torrent downloaded from Demonoid.com.txt

0.05 KB
 

Announce URL:

Torrent description


DARK FLOORS (2008) aka Lordi Motion Picture

DivX pro 6.8 (.avi) and original DD 5.1 sound

Movie and Subs (external) Dvd-DivX-Player compatible.


While in the hospital for a tomography of the brain of his autistic
daughter Sarah, Ben becomes upset when there is a power failure.
He decides to leave the hospital with Sarah, while the nurse Emily
tries to convince him to leave Sarah for further treatment. They
get the elevator with three other passengers, and suddenly the
elevator stops; when the door opens, people has vanished from the
hospital, the environment is creepy and they are chased by devilish
monsters. They find that they are trapped in the hospital, and
the creatures seem to be hunting Sarah.


Source........ PAL DVD Retail
Audio......... English - Original DD 5.1 AC3
Resolution.... 688x288
Bitrate....... 944 kbps
Codec......... DivX pro 6.8: quality-based 2-pass VBR, Extreme quality settings
Subs.......... External subs in FIN SWE NOR (.srt) PC and TV compatible

----------------------------------------------------------------------------------
LOG:

General
Complete name : H:AVI movies 5.1 sound XviD DivX ac-3
DARK FLOORSDark Floors DD.5.1.avi
Format : AVI
Format/Info : Audio Video Interleave
File size : 820 MiB
Duration : 1h 21mn
Overall bit rate : 1 402 Kbps
Writing application : FairUse Wizard - http://fairusewizard.com
Writing library : The best and REALLY easy backup tool

Video
Format : MPEG-4 Visual
Format settings, BVOP : Yes
Format settings, QPel : No
Format settings, GMC : No warppoints
Format settings, Matrix : Default (H.263)
Muxing mode : Packed bitstream
Codec ID : DX50
Codec ID/Hint : DivX 5
Duration : 1h 21mn
Bit rate : 944 Kbps
Width : 688 pixels
Height : 288 pixels
Display aspect ratio : 2.35
Frame rate : 25.000 fps
Resolution : 24 bits
Colorimetry : 4:2:0
Scan type : Progressive
Bits/(Pixel*Frame) : 0.191
Stream size : 552 MiB (67%)
Writing library : DivX 6.8.0 (UTC 2007-12-04)

Audio
Format : AC-3
Format/Info : Audio Coding 3
Codec ID : 2000
Duration : 1h 21mn
Bit rate mode : Constant
Bit rate : 448 Kbps
Channel(s) : 6 channels
Channel positions : Front: L C R, Surround: L R, LFE
Sampling rate : 48.0 KHz
Stream size : 262 MiB (32%)
Alignment : Split accross interleaves
Interleave, duration : 40 ms (1.00 video frame)
Interleave, preload duration : 500 ms

related torrents

Torrent name

health leech seeds Size
 


comments (0)

Main Menu