Horror

Dark Floors (2008) [DvdRip] [Xvid] {1337x} Noir

  • Download 5x Faster
  • Download torrent
  • Direct Download
  • Rate this torrent +  |  -


Torrent info

Name:Dark Floors (2008) [DvdRip] [Xvid] {1337x} Noir

Total Size: 704.76 MB

Magnet: Magnet Link

Seeds: 4

Leechers: 8

Stream: Watch Full Movie @ Movie4u

Last Updated: 2010-10-06 14:20:21 (Update Now)

Torrent added: 2009-08-27 18:44:40



VPN For Torrents

Torrent Files List


1337x.Org.txt (Size: 704.76 MB) (Files: 5)

 1337x.Org.txt

0.03 KB

 Dark Floors (2008) [DvdRip] [Xvid] {1337x}-Noir.avi

700.14 MB

 Noir.nfo

5.53 KB

 Subtitles

  Dark Floors (2008) [DvdRip] [Xvid] {1337x}-Noir.idx

63.34 KB

  Dark Floors (2008) [DvdRip] [Xvid] {1337x}-Noir.sub

4.54 MB
 

Announce URL: http://genesis.1337x.org:1337/announce

Torrent description

Dark Floors (2008) [DvdRip] [Xvid] {1337x} Noir preview 0

Screenshots

Dark Floors (2008) [DvdRip] [Xvid] {1337x} Noir preview 1

Dark Floors (2008) [DvdRip] [Xvid] {1337x} Noir preview 2

Dark Floors (2008) [DvdRip] [Xvid] {1337x} Noir preview 3

Dark Floors (2008) [DvdRip] [Xvid] {1337x} Noir preview 4
[code]

??????
??????? ????
???????? ??????
????????? ???????????
??????? ???????????? ?????????????
????????? ???????????????????????????
?????????? ???????????????????????????
??????????? ?????????????????????????????
?????????????????????????????????????????
?????????????????????????????????????????
?????????????????????????????????????????
?????????????????????????????????????????
?????????????????????????????????????????
???????? ?????????????????????????????????
????????? ????????????????????????????
????????? ????????????????? ????????
????????? ???????????????? ????????
????????? ?????????????? ????????
????????? ?????




********************
* Dark Floors 2008 *
********************

________________________
General Information |
________________________|
_______________________________________________________________
Type : Movie
Format : AVI
Format/Info : Audio Video Interleave
File size : 700Mb
Duration : 1h 25mn
Language : English
Source : Dvd NTSC
Subtitles : English,Spanish
Genre : Fantasy | Horror
IMDB Link : http://www.imdb.com/title/tt0985025/
Rating : 4.4/10
_______________________________________________________________
________________________________________________________________
Video
Format : MPEG-4 Visual
Format profile : Streaming [email protected]
Format settings, BVOP : Yes
Format settings, QPel : No
Format settings, GMC : No warppoints
Format settings, Matrix : Default
Muxing mode : Packed bitstream
Codec ID : XVID
Codec ID/Hint : XviD
Duration : 1h 25mn
Bit rate : 979 Kbps
Width : 640 pixels
Height : 272 pixels
Display aspect ratio : 2.35
Frame rate : 23.976 fps
Resolution : 24 bits
Colorimetry : 4:2:0
Scan type : Progressive
Bits/(Pixel*Frame) : 0.234
Stream size : 597 MiB (85%)
_______________________________________________________________
Audio
Format : MPEG Audio
Format version : Version 1
Format profile : Layer 3
Codec ID : 55
Codec ID/Hint : MP3
Duration : 1h 25mn
Bit rate mode : Constant
Bit rate : 160 Kbps
Minimum bit rate : 160 Kbps
Channel(s) : 2 channels
Sampling rate : 48.0 KHz
Resolution : 16 bits
Stream size : 97.6 MiB (14%)
Alignment : Aligned on interleaves
Interleave, duration : 42 ms (1.00 video frame)
Interleave, preload duration : 504 ms
Writing library : LAME3.97
Encoding settings : CBR
_______________________________________________________________
________________
Description
________________
_______________________________________________________________
Concerned for her autistic daughters health, the father sees a
removal from the hospital by force as the only option. An
elevator break-down prevents a smooth exit and renders them
trapped with others. Yet the incident is only the beginning
of a descent into nightmare. As the doors open the hospital
appears mysteriously deserted. When mutilated bodies are found
creatures from a dark world start a frightening attack. It
soon becomes clear that the survival of the group may rest
solely on the little girl.
_______________________________________________________________

___________________
Notes
___________________
_______________________________________________________________
Be aware People are starting to use my tag to create fake files
Make sure its a real genuine release from me, I have never and
will never do Cams,Telesyncs,Telecine or RAR files.Try to check
1337x.org to see if the file exist.

Fuck the fakers and enjoy my release.
_______________________________________________________________
___________________
Post Information
___________________
_________________________________
Posted by............: Noir
Posted on............: 10/11/2008
_________________________________
[/code]
Dark Floors (2008) [DvdRip] [Xvid] {1337x} Noir preview 5

related torrents

Torrent name

health leech seeds Size

Dark floors 2008 Snuffy

8 2 697.08 MB 0
 


comments (0)

Main Menu

 

script data-cfasync="false" src="//d2ghscazvn398x.cloudfront.net/?cshgd=690275">