Horror

DAGON [2001] DD 5 1 Subs FIN SWE DivX *DM*

  • Download 5x Faster
  • Download torrent
  • Direct Download
  • Rate this torrent +  |  -
DAGON [2001] DD 5 1 Subs FIN SWE DivX *DM*

Anonymous and Direct Download 300GB+ free


Torrent info

Name:DAGON [2001] DD 5 1 Subs FIN SWE DivX *DM*

Total Size: 1.02 GB

Magnet: Magnet Link

Seeds: 0

Leechers: 0

Stream: Watch Online @ Movie4u

Last Updated: 2015-11-06 22:01:35 (Update Now)

Torrent added: 2009-08-27 18:41:05




Torrent Files List


DAGON DD.5.1.avi (Size: 1.02 GB) (Files: 5)

 DAGON DD.5.1.avi

1.02 GB

 DAGON DD.5.1.Finnish.srt

31.12 KB

 DAGON DD.5.1.Swedish.srt

31.14 KB

 dagon_cover.jpg

61.03 KB

 Torrent downloaded from Demonoid.com.txt

0.05 KB
 

tracker

leech seeds
 

Torrent description


DAGON 2001 DvdRip and Subs all ripped/encoded by me.

DVD................. Retail PAL Dvd
Audio............... English DD 5.1 AC3 (original. not compressed)
Resolution.......... 656x368 (16/9 Full Frame Widescreen)
Bitrate............. 1 099 kbps
Subtitles........... external FIN SWE (.srt) or watch without !
Standalone Dvd Player support......... Yes. And subs too

NOTEZ: For the last 4 days i have been experimenting more and diving deeper into the Divx 6.8 pro-codecs depths. And here are the results for you to judge. Extremely slow multipass vbr encodings and INSANE QTY settings (Dual-Core CPU took 4-5 hours to make this encoding!). I don't believe that i can achieve any better quality than this with this codec.
--------------------------------------------------------------------------------------------------
Curious real-world (historical) facts (from Wikipedia):

DAGON - Fish-god tradition

Rashi records a tradition that the name Dag?n is related to Hebrew dag/d?g 'fish' and that Dagon was imagined in the shape of a fish: compare the Babylonian fish-god Oannes. In the thirteenth century David Kimhi interpreted the odd sentence in (Bible) 1 Samuel 5.2–7 that "only Dagon was left to him" to mean "only the form of a fish was left", adding: "It is said that Dagon, from his navel down, had the form of a fish (whence his name, Dagon), and from his navel up, the form of a man, as it is said, his two hands were cut off." The Septuagint text of 1 Samuel 5.2–7 (Bible) says that both the arms and the legs of the image of
Dagon were broken off.

--------------------------------------------------------------------------------------------------
32 out of 43 people found the following comment useful :-
There's something fishy in Imboca!, 31 January 2005
10/10
Author: Brandt Sponseller from New York City

Based on two short stories ("Dagon" and "The Shadow Over Innsmouth") by horror author H.P. Lovecraft, Dagon tells the story of Paul Marsh (Ezra Godden), who has just made a bundle of money from stocks. While vacationing on a small boat with his girlfriend, Barbara (Raquel Merono), and an older couple, they run into trouble off the coast of a seemingly deserted, small Spanish fishing town of Imboca. Paul and his Barbara make it to shore to look for help, but things turn from bad to worse as they discover the town's evil secrets.

This is director Stuart Gordon's third Lovecraft related film, after Re-Animator (1985) and From Beyond (1986). All were also at least co-produced by Brian Yuzna and co-written by Dennis Paoli. While I can't say Dagon is the best, it is just as good, finishing as a solid 10 out of 10 for me.

What really puts Dagon over the top early on is the incredible atmosphere that Gordon achieves from the beginning of the film. We see a prologue of sorts with Marsh diving beneath the ocean, coming across bizarre, creepy ruins, and finally running into a beautiful mermaid who just happens to have a set of shark teeth. This turns out to be a dream, but shortly after, it gets even better when our heroes spot the deserted Spanish town and the ominous weather that's quickly approaching.

By the time Paul begins exploring the spooky town, I wanted to spend an eternity there. It has all the atmosphere of Marc Caro and Jean-Pierre Jeunet's superb Delicatessen (1991), with the addition of creepy, freakish townspeople. The more we learn about everything, the more strange it becomes, until we're finally in the middle of a nightmare that seems like a melding of Federico Fellini, David Cronenberg and Frank Henenlotter--we get visceral horror, captivating dark fantasy, and beautiful surrealism. There couldn't be a much more exquisite mix for my tastes. Don't miss this one.

--------------------------------------------------------------------------------------------------
LOG:
Format : AVI
Format/Info : Audio Video Interleave
File size : 1.02 GiB
Duration : 1h 34mn
Overall bit rate : 1 557 Kbps
Writing application : VirtualDubMod 1.5.10.2 (build 2540/release)
Writing library : VirtualDubMod build 2540/release

Video
Format : MPEG-4 Visual
Format settings, BVOP : Yes
Format settings, QPel : No
Format settings, GMC : No warppoints
Format settings, Matrix : Default (H.263)
Muxing mode : Packed bitstream
Codec ID : DX50
Codec ID/Hint : DivX 5
Duration : 1h 34mn
Bit rate : 1 099 Kbps
Width : 656 pixels
Height : 368 pixels
Display aspect ratio : 16/9
Frame rate : 25.000 fps
Resolution : 24 bits
Colorimetry : 4:2:0
Scan type : Progressive
Bits/(Pixel*Frame) : 0.182
Stream size : 740 MiB (71%)
Writing library : DivX 6.8.0 (UTC 2007-12-04)

Audio
Format : AC-3
Format/Info : Audio Coding 3
Codec ID : 2000
Duration : 1h 34mn
Bit rate mode : Constant
Bit rate : 448 Kbps
Channel(s) : 6 channels
Channel positions : Front: L C R, Surround: L R, LFE
Sampling rate : 48.0 KHz
Stream size : 302 MiB (29%)
Alignment : Split accross interleaves
Interleave, duration : 40 ms (1.00 video frame)
Interleave, preload duration : 500 ms

related torrents

Torrent name

health leech seeds Size
 


comments (0)

Main Menu