Horror

Clive Barker/Stephen King Quicksilver Highway [1997] DVDRip

  • Download 5x Faster
  • Download torrent
  • Direct Download
  • Rate this torrent +  |  -
Clive Barker/Stephen King Quicksilver Highway [1997] DVDRip

Anonymous and Free Direct Download 300GB+


Torrent info

Name:Clive Barker/Stephen King Quicksilver Highway [1997] DVDRip

Total Size: 699.80 MB

Magnet: Magnet Link

Seeds: 6

Leechers: 1

Stream: Watch Online @ Movie4u

Last Updated: 2016-01-31 13:57:02 (Update Now)

Torrent added: 2009-08-27 18:21:10



VPN For Torrents

Torrent Files List


Quicksilver Highway (1997) DVDRip VideoVault.avi (Size: 699.80 MB) (Files: 1)

 Quicksilver Highway (1997) DVDRip VideoVault.avi

699.80 MB
 

tracker

leech seeds
 

Torrent description

This film is actually two one hour stories.

Quicksilver Highway is a 1997 horror film directed by Mick Garris. It is based on Clive Barker's short story The Body Politic and Stephen King's short story Chattery Teeth.

The main story is centered on Aaron Quicksilver (played by Christopher Lloyd), a travelling showman who tells horror stories to the people he meets. He first runs into a newly married couple who are hitchhiking, to whom he tells the story Chattery Teeth, about a man who is saved from a dangerous hitchhiker by a set of wind-up toy teeth. He later runs into a pickpocket to whom he tells the story The Body Politic, a story about a man whose hands rebel against him.

-------------------------------------------------------------------------------

General
Complete name : Quicksilver Highway (1997) DVDRip VideoVault.avi
Format : AVI
Format/Info : Audio Video Interleave
File size : 700 MiB
Duration : 1h 30mn
Overall bit rate : 1 083 Kbps
Writing application : VirtualDubMod 1.5.4.1 (build 2178/release)
Writing library : VirtualDubMod build 2178/release

Video
Format : MPEG-4 Visual
Format profile : Streaming [email protected]
Format settings, BVOP : Yes
Format settings, QPel : No
Format settings, GMC : No warppoints
Format settings, Matrix : Custom
Codec ID : XVID
Codec ID/Hint : XviD
Duration : 1h 30mn
Bit rate : 941 Kbps
Width : 640 pixels
Height : 480 pixels
Display aspect ratio : 4/3
Frame rate : 25.000 fps
Resolution : 24 bits
Colorimetry : 4:2:0
Scan type : Progressive
Bits/(Pixel*Frame) : 0.123
Stream size : 608 MiB (87%)
Writing library : XviD 1.0.1 (UTC 2004-06-05)

Audio
Format : MPEG Audio
Format version : Version 1
Format profile : Layer 3
Codec ID : 55
Codec ID/Hint : MP3
Duration : 1h 30mn
Bit rate mode : Variable
Bit rate : 128 Kbps
Channel(s) : 2 channels
Sampling rate : 48.0 KHz
Resolution : 16 bits
Stream size : 83.1 MiB (12%)
Alignment : Aligned on interleaves
Interleave, duration : 24 ms (0.60 video frame)
Interleave, preload duration : 483 ms
Writing library : LAME3.90.
Encoding settings : ABR
Language : English

---------------------------------------------------------------------------------


Please help your fellow pirates by seeding after download!

related torrents

Torrent name

health leech seeds Size
 


comments (0)

Main Menu