Horror

Clive Barker's Saint Sinner (2002) DVDRip XviD (AC 3, 5 1)

  • Download 5x Faster
  • Download torrent
  • Direct Download
  • Rate this torrent +  |  -
Clive Barker's Saint Sinner (2002) DVDRip XviD (AC 3, 5 1)

Free and Direct Download with Usenet.nl 300GB+ free


Torrent info

Name:Clive Barker's Saint Sinner (2002) DVDRip XviD (AC 3, 5 1)

Total Size: 700.41 MB

Magnet: Magnet Link

Seeds: 1

Leechers: 0

Stream: Watch Online @ Movie4u

Last Updated: 2016-01-30 18:42:28 (Update Now)

Torrent added: 2009-08-27 18:20:58





Torrent Files List


CLIVE BARKER PRESENTS SAINT SINNER.avi (Size: 700.41 MB) (Files: 1)

 CLIVE BARKER PRESENTS SAINT SINNER.avi

700.41 MB
 

tracker

leech seeds
 

Torrent description

In 1815 a monk, Tomas Alcala, unwittingly unleashes two female succubi, Munkar and Nakir, upon an unsuspecting 21st century. He is chosen by God to travel through the centuries and stop the demons' rampage.




General
Complete name : CLIVE BARKER PRESENTS SAINT SINNER.avi
Format : AVI
Format/Info : Audio Video Interleave
File size : 700 MiB
Duration : 1h 25mn
Overall bit rate : 1 141 Kbps
Writing application : VirtualDubMod 1.5.4.1 (build 2178/release)
Writing library : VirtualDubMod build 2178/release

Video
Format : MPEG-4 Visual
Format profile : Streaming [email protected]
Format settings, BVOP : Yes
Format settings, QPel : No
Format settings, GMC : No warppoints
Format settings, Matrix : Custom
Codec ID : XVID
Codec ID/Hint : XviD
Duration : 1h 25mn
Bit rate : 686 Kbps
Width : 608 pixels
Height : 352 pixels
Display aspect ratio : 16/9
Frame rate : 23.976 fps
Resolution : 24 bits
Colorimetry : 4:2:0
Scan type : Progressive
Bits/(Pixel*Frame) : 0.134
Stream size : 421 MiB (60%)
Writing library : XviD 1.2.0.dev47 (UTC 2006-11-01)

Audio
Format : AC-3
Format/Info : Audio Coding 3
Codec ID : 2000
Duration : 1h 25mn
Bit rate mode : Constant
Bit rate : 448 Kbps
Channel(s) : 6 channels
Channel positions : Front: L C R, Surround: L R, LFE
Sampling rate : 48.0 KHz
Stream size : 275 MiB (39%)
Alignment : Split accross interleaves
Interleave, duration : 96 ms (2.30 video frames)
Interleave, preload duration : 96 ms
Language : English



Please help your fellow pirates by seeding after download!

related torrents

Torrent name

health leech seeds Size
 

comments (0)

Main Menu