Horror

Clive Barker's Rawhead Rex (1986) DVDRip (AC 3)

  • Download 5x Faster
  • Download torrent
  • Direct Download
  • Rate this torrent +  |  -
Clive Barker's Rawhead Rex (1986) DVDRip (AC 3)

Free and Direct Download with Usenet 300GB+ free


Torrent info

Name:Clive Barker's Rawhead Rex (1986) DVDRip (AC 3)

Total Size: 799.42 MB

Magnet: Magnet Link

Seeds: 0

Leechers: 0

Stream: Watch Online @ Movie4u

Last Updated: 2012-01-16 05:16:15 (Update Now)

Torrent added: 2009-08-27 18:20:52




Torrent Files List


Rawhead Rex (1986) - [akhiugo].avi (Size: 799.42 MB) (Files: 1)

 Rawhead Rex (1986) - [akhiugo].avi

799.42 MB
 

Announce URL:

Torrent description

Release Date: January 1st, 1986

---------------------------------

Directed: George Pavlou
Written: Clive Barker
Starring: David Dukes, Kelly Piper, Cora Venus Lunny, Ronan Wilmot, Niall Toibín

-----------------------------------------------------------------------------

Rawhead Rex was an ancient and powerful demon who was once worshipped as a god in pre-Christian Ireland. His reign of terror was eventually ended, and he was imprisoned beneath a massive stone in a lonely field. All has been safe for hundreds of years until one lone farmer clearing his field removes a large stone, and the rampage begins anew.

-----------------------------------------------------------------------------

General
Complete name : Rawhead Rex (1986) - [akhiugo].avi
Format : AVI
Format/Info : Audio Video Interleave
File size : 799 MiB
Duration : 1h 25mn
Overall bit rate : 1 304 Kbps
Writing application : VirtualDubMod 1.5.4.1 (build 2178/release)
Writing library : VirtualDubMod build 2178/release

Video
Format : MPEG-4 Visual
Format profile : Streaming [email protected]
Format settings, BVOP : Yes
Format settings, QPel : No
Format settings, GMC : No warppoints
Format settings, Matrix : Custom
Codec ID : XVID
Codec ID/Hint : XviD
Duration : 1h 25mn
Bit rate : 1 073 Kbps
Width : 512 pixels
Height : 384 pixels
Display aspect ratio : 4/3
Frame rate : 25.000 fps
Resolution : 24 bits
Colorimetry : 4:2:0
Scan type : Progressive
Bits/(Pixel*Frame) : 0.218
Stream size : 658 MiB (82%)
Writing library : XviD 1.2.1 (UTC 2008-12-04)

Audio
Format : AC-3
Format/Info : Audio Coding 3
Codec ID : 2000
Duration : 1h 25mn
Bit rate mode : Constant
Bit rate : 224 Kbps
Channel(s) : 2 channels
Channel positions : L R
Sampling rate : 48.0 KHz
Stream size : 137 MiB (17%)
Alignment : Aligned on interleaves
Interleave, duration : 96 ms (2.40 video frames)
Interleave, preload duration : 96 ms


Please help your fellow pirates by seeding after download!

related torrents

Torrent name

health leech seeds Size
 

comments (0)

Main Menu