Horror

Clive Barker's Book of Blood DVDrip[2008]

  • Download 5x Faster
  • Download torrent
  • Direct Download
  • Rate this torrent +  |  -
Clive Barker's Book of Blood DVDrip[2008]

Anonymous and Direct Download 300GB+ free


Torrent info

Name:Clive Barker's Book of Blood DVDrip[2008]

Total Size: 853.15 MB

Magnet: Magnet Link

Seeds: 0

Leechers: 0

Stream: Watch Online @ Movie4u

Last Updated: 2011-01-06 07:59:44 (Update Now)

Torrent added: 2009-08-27 18:20:38




Torrent Files List


Clive Barker's Book of Blood-DVDrip[2008].avi (Size: 853.15 MB) (Files: 1)

 Clive Barker's Book of Blood-DVDrip[2008].avi

853.15 MB
 

Announce URL: http://tpb.tracker.thepiratebay.org/announce

Torrent description

http://www.imdb.com/title/tt1169809/

Format : AVI
Format/Info : Audio Video Interleave
File size : 853 MiB
Duration : 1h 40mn
Overall bit rate : 1 187 Kbps
Writing application : FairUse Wizard -
Writing library : VirtualDub build 30009/release

Video
Format : MPEG-4 Visual
Format profile : Streaming [email protected]
Format settings, BVOP : Yes
Format settings, QPel : No
Format settings, GMC : No warppoints
Format settings, Matrix : Default
Codec ID : XVID
Codec ID/Hint : XviD
Duration : 1h 40mn
Bit rate : 1 050 Kbps
Width : 528 pixels
Height : 384 pixels
Display aspect ratio : 1.375
Frame rate : 23.976 fps
Resolution : 24 bits
Colorimetry : 4:2:0
Scan type : Progressive
Bits/(Pixel*Frame) : 0.216
Stream size : 755 MiB (88%)
Writing library : XviD 1.2.0.dev47 (UTC 2006-11-01)

Audio
Format : MPEG Audio
Format version : Version 1
Format profile : Layer 3
Codec ID : 55
Codec ID/Hint : MP3
Duration : 1h 40mn
Bit rate mode : Constant
Bit rate : 128 Kbps
Minimum bit rate : 128 Kbps
Channel(s) : 2 channels
Sampling rate : 48.0 KHz
Resolution : 16 bits
Stream size : 91.8 MiB (11%)
Alignment : Aligned on interleaves
Interleave, duration : 42 ms (1.00 video frame)
Interleave, preload duration : 504 ms
Writing library : LAME3.97
Encoding settings : CBR

related torrents

Torrent name

health leech seeds Size
 


comments (0)

Main Menu