Horror

Children of the Corn 6(66) Isaacs Return 1999 xivd dvdrip [

  • Download 5x Faster
  • Download torrent
  • Direct Download
  • Rate this torrent +  |  -
Children of the Corn 6(66) Isaacs Return 1999 xivd dvdrip [

Free and Direct Download with Usenet 300GB+ free


Torrent info

Name:Children of the Corn 6(66) Isaacs Return 1999 xivd dvdrip [

Total Size: 509.42 MB

Magnet: Magnet Link

Seeds: 0

Leechers: 0

Stream: Watch Online @ Movie4u

Last Updated: 2010-09-14 02:45:59 (Update Now)

Torrent added: 2009-08-27 18:14:31




Torrent Files List


Children of the Corn 6.nfo (Size: 509.42 MB) (Files: 38)

 Children of the Corn 6.nfo

1.50 KB

 Children of the Corn 6.part01.rar

14.31 MB

 Children of the Corn 6.part02.rar

14.31 MB

 Children of the Corn 6.part03.rar

14.31 MB

 Children of the Corn 6.part04.rar

14.31 MB

 Children of the Corn 6.part05.rar

14.31 MB

 Children of the Corn 6.part06.rar

14.31 MB

 Children of the Corn 6.part07.rar

14.31 MB

 Children of the Corn 6.part08.rar

14.31 MB

 Children of the Corn 6.part09.rar

14.31 MB

 Children of the Corn 6.part10.rar

14.31 MB

 Children of the Corn 6.part11.rar

14.31 MB

 Children of the Corn 6.part12.rar

14.31 MB

 Children of the Corn 6.part13.rar

14.31 MB

 Children of the Corn 6.part14.rar

14.31 MB

 Children of the Corn 6.part15.rar

14.31 MB

 Children of the Corn 6.part16.rar

14.31 MB

 Children of the Corn 6.part17.rar

14.31 MB

 Children of the Corn 6.part18.rar

14.31 MB

 Children of the Corn 6.part19.rar

14.31 MB

 Children of the Corn 6.part20.rar

14.31 MB

 Children of the Corn 6.part21.rar

14.31 MB

 Children of the Corn 6.part22.rar

14.31 MB

 Children of the Corn 6.part23.rar

14.31 MB

 Children of the Corn 6.part24.rar

14.31 MB

 Children of the Corn 6.part25.rar

14.31 MB

 Children of the Corn 6.part26.rar

14.31 MB

 Children of the Corn 6.part27.rar

14.31 MB

 Children of the Corn 6.part28.rar

14.31 MB

 Children of the Corn 6.part29.rar

14.31 MB

 Children of the Corn 6.part30.rar

14.31 MB

 Children of the Corn 6.part31.rar

14.31 MB

 Children of the Corn 6.part32.rar

14.31 MB

 Children of the Corn 6.part33.rar

14.31 MB

 Children of the Corn 6.part34.rar

14.31 MB

 Children of the Corn 6.part35.rar

14.31 MB

 Children of the Corn 6.part36.rar

8.74 MB

 Children of the Corn 6.sfv

4.23 KB
 

Announce URL: http://tracker.ilovetorrents.com/announce.php

Torrent description

General
Complete name : L:\Torrent Schijf\3 - Xvid\Children of the Corn Movies\Children of the Corn 6\Children of the Corn 6.avi
Format : AVI
Format/Info : Audio Video Interleave
File size : 509 MiB
Duration : 1h 18mn
Overal bit rate : 905 Kbps
Writing library : VirtualDub build 8981/release

Video
Format : MPEG-4 Visual
Codec ID : DIV3
Codec ID/Hint : DivX 3 Low
Duration : 1h 18mn
Bit rate : 767 Kbps
Width : 640 pixels
Height : 480 pixels
Display aspect ratio : 4/3
Frame rate : 25.000 fps
Resolution : 24 bits
Bits/(Pixel*Frame) : 0.100
Stream size : 432 MiB

Audio
Format : MPEG Audio
Format version : Version 1
Format profile : Layer 3
Codec ID : 55
Codec ID/Hint : MP3
Duration : 1h 18mn
Bit rate mode : Constant
Bit rate : 128 Kbps
Channel(s) : 2 channels
Sampling rate : 44.1 KHz
Resolution : 16 bits
Stream size : 71.9 MiB

Link: http://www.imdb.com/title/tt0177625/

related torrents

Torrent name

health leech seeds Size
 

comments (0)

Main Menu