Horror

Children of the Corn 5 Fields of terror (1998) Xvid [

  • Download 5x Faster
  • Download torrent
  • Direct Download
  • Rate this torrent +  |  -
Children of the Corn 5 Fields of terror (1998) Xvid [

Free and Direct Download with Usenet.nl 300GB+ free


Torrent info

Name:Children of the Corn 5 Fields of terror (1998) Xvid [

Total Size: 500.04 MB

Magnet: Magnet Link

Seeds: 0

Leechers: 0

Stream: Watch Online @ Movie4u

Last Updated: 2010-05-22 00:52:40 (Update Now)

Torrent added: 2009-08-27 18:14:31





Torrent Files List


Children of the Corn 5.nfo (Size: 500.04 MB) (Files: 37)

 Children of the Corn 5.nfo

1.76 KB

 Children of the Corn 5.part01.rar

14.31 MB

 Children of the Corn 5.part02.rar

14.31 MB

 Children of the Corn 5.part03.rar

14.31 MB

 Children of the Corn 5.part04.rar

14.31 MB

 Children of the Corn 5.part05.rar

14.31 MB

 Children of the Corn 5.part06.rar

14.31 MB

 Children of the Corn 5.part07.rar

14.31 MB

 Children of the Corn 5.part08.rar

14.31 MB

 Children of the Corn 5.part09.rar

14.31 MB

 Children of the Corn 5.part10.rar

14.31 MB

 Children of the Corn 5.part11.rar

14.31 MB

 Children of the Corn 5.part12.rar

14.31 MB

 Children of the Corn 5.part13.rar

14.31 MB

 Children of the Corn 5.part14.rar

14.31 MB

 Children of the Corn 5.part15.rar

14.31 MB

 Children of the Corn 5.part16.rar

14.31 MB

 Children of the Corn 5.part17.rar

14.31 MB

 Children of the Corn 5.part18.rar

14.31 MB

 Children of the Corn 5.part19.rar

14.31 MB

 Children of the Corn 5.part20.rar

14.31 MB

 Children of the Corn 5.part21.rar

14.31 MB

 Children of the Corn 5.part22.rar

14.31 MB

 Children of the Corn 5.part23.rar

14.31 MB

 Children of the Corn 5.part24.rar

14.31 MB

 Children of the Corn 5.part25.rar

14.31 MB

 Children of the Corn 5.part26.rar

14.31 MB

 Children of the Corn 5.part27.rar

14.31 MB

 Children of the Corn 5.part28.rar

14.31 MB

 Children of the Corn 5.part29.rar

14.31 MB

 Children of the Corn 5.part30.rar

14.31 MB

 Children of the Corn 5.part31.rar

14.31 MB

 Children of the Corn 5.part32.rar

14.31 MB

 Children of the Corn 5.part33.rar

14.31 MB

 Children of the Corn 5.part34.rar

14.31 MB

 Children of the Corn 5.part35.rar

13.66 MB

 Children of the Corn 5.sfv

4.11 KB
 

Announce URL: http://tracker.ilovetorrents.com/announce.php

Torrent description

General
Complete name : L:\Torrent Schijf\3 - Xvid\Children of the Corn Movies\Children of the Corn 5\Children of the Corn 5.avi
Format : AVI
Format/Info : Audio Video Interleave
File size : 500 MiB
Duration : 1h 22mn
Overal bit rate : 844 Kbps

Video
Format : MPEG-4 Visual
Format profile : [email protected]
Format settings, BVOP : No
Format settings, QPel : No
Format settings, GMC : No warppoints
Format settings, Matrix : Default
Codec ID : XVID
Codec ID/Hint : XviD
Duration : 1h 22mn
Bit rate : 703 Kbps
Width : 320 pixels
Height : 240 pixels
Display aspect ratio : 4/3
Frame rate : 25.000 fps
Resolution : 8 bits
Colorimetry : 4:2:0
Scan type : Progressive
Bits/(Pixel*Frame) : 0.366
Stream size : 417 MiB
Writing library : XviD 1.1.0 Beta2 (UTC 2005-04-04)

Audio
Format : MPEG Audio
Format version : Version 1
Format profile : Layer 3
Codec ID : 55
Codec ID/Hint : MP3
Bit rate mode : Constant
Bit rate : 128 Kbps
Channel(s) : 2 channels
Sampling rate : 48.0 KHz
Resolution : 16 bits
Stream size : 75.8 MiB

Link: http://www.imdb.com/title/tt0150111/

related torrents

Torrent name

health leech seeds Size
 

comments (0)

Main Menu