Horror

Children of the Corn 4 The Gathering (1996) Xvid dvdrip [

  • Download 5x Faster
  • Download torrent
  • Direct Download
  • Rate this torrent +  |  -
Children of the Corn 4 The Gathering (1996) Xvid dvdrip [

Anonymous and Direct Download 300GB+ free


Torrent info

Name:Children of the Corn 4 The Gathering (1996) Xvid dvdrip [

Total Size: 404.64 MB

Magnet: Magnet Link

Seeds: 0

Leechers: 0

Stream: Watch Online @ Movie4u

Last Updated: 2016-03-14 21:59:51 (Update Now)

Torrent added: 2009-08-27 18:14:30




Torrent Files List


Children of the Corn 4.nfo (Size: 404.64 MB) (Files: 31)

 Children of the Corn 4.nfo

1.80 KB

 Children of the Corn 4.part01.rar

14.31 MB

 Children of the Corn 4.part02.rar

14.31 MB

 Children of the Corn 4.part03.rar

14.31 MB

 Children of the Corn 4.part04.rar

14.31 MB

 Children of the Corn 4.part05.rar

14.31 MB

 Children of the Corn 4.part06.rar

14.31 MB

 Children of the Corn 4.part07.rar

14.31 MB

 Children of the Corn 4.part08.rar

14.31 MB

 Children of the Corn 4.part09.rar

14.31 MB

 Children of the Corn 4.part10.rar

14.31 MB

 Children of the Corn 4.part11.rar

14.31 MB

 Children of the Corn 4.part12.rar

14.31 MB

 Children of the Corn 4.part13.rar

14.31 MB

 Children of the Corn 4.part14.rar

14.31 MB

 Children of the Corn 4.part15.rar

14.31 MB

 Children of the Corn 4.part16.rar

14.31 MB

 Children of the Corn 4.part17.rar

14.31 MB

 Children of the Corn 4.part18.rar

14.31 MB

 Children of the Corn 4.part19.rar

14.31 MB

 Children of the Corn 4.part20.rar

14.31 MB

 Children of the Corn 4.part21.rar

14.31 MB

 Children of the Corn 4.part22.rar

14.31 MB

 Children of the Corn 4.part23.rar

14.31 MB

 Children of the Corn 4.part24.rar

14.31 MB

 Children of the Corn 4.part25.rar

14.31 MB

 Children of the Corn 4.part26.rar

14.31 MB

 Children of the Corn 4.part27.rar

14.31 MB

 Children of the Corn 4.part28.rar

14.31 MB

 Children of the Corn 4.part29.rar

4.09 MB

 Children of the Corn 4.sfv

3.44 KB
 

tracker

leech seeds
 

Torrent description

General
Complete name : L:\Torrent Schijf\3 - Xvid\Children of the Corn Movies\Children of the Corn 4\Children of the Corn 4.avi
Format : AVI
Format/Info : Audio Video Interleave
File size : 405 MiB
Duration : 1h 21mn
Overal bit rate : 694 Kbps

Video
Format : MPEG-4 Visual
Format profile : [email protected]
Format settings, BVOP : No
Format settings, QPel : No
Format settings, GMC : No warppoints
Format settings, Matrix : Default
Codec ID : XVID
Codec ID/Hint : XviD
Duration : 1h 21mn
Bit rate : 553 Kbps
Width : 320 pixels
Height : 240 pixels
Display aspect ratio : 4/3
Frame rate : 25.000 fps
Resolution : 8 bits
Colorimetry : 4:2:0
Scan type : Progressive
Bits/(Pixel*Frame) : 0.288
Stream size : 322 MiB
Writing library : XviD 1.1.0 Beta2 (UTC 2005-04-04)

Audio
Format : MPEG Audio
Format version : Version 1
Format profile : Layer 3
Codec ID : 55
Codec ID/Hint : MP3
Bit rate mode : Constant
Bit rate : 128 Kbps
Channel(s) : 2 channels
Sampling rate : 48.0 KHz
Resolution : 16 bits
Stream size : 74.6 MiB
Writing library : LAME3.96.1

Link: http://www.imdb.com/title/tt0115885/

related torrents

Torrent name

health leech seeds Size
 


comments (0)

Main Menu