Horror

Cemetery Man(UNCUT)[DVDRip][KooKoo][h33t]

  • Download 5x Faster
  • Download torrent
  • Direct Download
  • Rate this torrent +  |  -
Cemetery Man(UNCUT)[DVDRip][KooKoo][h33t]

Free and Direct Download with Usenet 300GB+ free


Torrent info

Name:Cemetery Man(UNCUT)[DVDRip][KooKoo][h33t]

Total Size: 710.59 MB

Magnet: Magnet Link

Seeds: 16

Leechers: 5

Stream: Watch Online @ Movie4u

Last Updated: 0000-00-00 00:00:00 (Update Now)

Torrent added: 2009-08-27 18:11:08




Torrent Files List


Cemetery Man(UNCUT)[DVDRip][KooKoo][h33t].avi (Size: 710.59 MB) (Files: 5)

 Cemetery Man(UNCUT)[DVDRip][KooKoo][h33t].avi

700.29 MB

 EnglishSubs

  Cemetery Man(UNCUT)[DVDRip][KooKoo][h33t].srt

165.90 KB

 KooKoo.txt

15.92 KB

 Sample

  Sample.avi

10.12 MB

 tracked_by_h33t_com.txt

0.02 KB
 

Announce URL: http://www.h33t.com:3310/announce

Torrent description

Dellamorte Dellamore (1994)
aka
Cemetery Man
-----------------------------------------------------------------------------------------------------------------------------
Genre: Horror
-----------------------------------------------------------------------------------------------------------------------------
Synopsis:
Rupert Everett (MY BEST FRIEND'S WEDDING) stars in this Italian horror film as Francesco Dellamorte a watchman at a cemetery. Being a
watchman means being ready with a hatchet as the undead emerge from their graves each night. Funny smart and scary all at the same time
CEMETARY MAN explores Francesco's quest for love life's meaning and ultimately enlightenment.System Requirements:Running Time 99
Mins.Format: DVD MOVIE Genre: HORROR Rating: R UPC: 013131309393 Manufacturer No: DV13093
-----------------------------------------------------------------------------------------------------------------------------
IMDB URL: http://www.imdb.com/title/tt0109592/
-----------------------------------------------------------------------------------------------------------------------------
DVD source Information:
# Format: Closed-captioned, Color, Dolby, DVD-Video, Widescreen, NTSC
# Language: English
# Region: Region 1 (U.S. and Canada only. Read more about DVD formats.)
# Aspect Ratio: 1.66:1
# Number of discs: 1
# Rating: UNRATED
# Studio: Starz / Anchor Bay
# DVD Release Date: June 13, 2006
# Run Time: 99 minutes
http://www.amazon.com/Cemetery-Man-Barbara-Cupisti/dp/B000F3UA8E/ref=sr_1_1?ie=UTF8&s=dvd&qid=1213413526&sr=1-1
-----------------------------------------------------------------------------------------------------------------------------
File Verified With MediaInfo:
Complete name : Cemetery Man(UNCUT)[DVDRip][KooKoo][h33t].avi
Format : AVI
Format/Info : Audio Video Interleave
File size : 700 MiB
Duration : 1h 43mn
Overal bit rate : 947 Kbps
Movie name : Cemetery Man(UNCUT)[DVDRip][KooKoo][h33t]
Recorded date : June/13/2008
Writing application : VirtualDubMod 1.5.10.2 (build 2540/release) VirtualDubMod build 2540/release
Copyright : KooKoo
IAS1 : English
-----------------------------------------------------------------------------------------------------------------------------
Video
Format : MPEG-4 Visual
Format profile : Streaming [email protected]
Format settings, BVOP : Yes
Format settings, QPel : No
Format settings, GMC : No warppoints
Format settings, Matrix : Custom
Codec ID : XVID
Codec ID/Hint : XviD
Duration : 1h 43mn
Bit rate : 815 Kbps
Width : 512 pixels
Height : 320 pixels
Display aspect ratio : 1.600
Frame rate : 23.976 fps
Resolution : 8 bits
Colorimetry : 4:2:0
Scan type : Progressive
Bits/(Pixel*Frame) : 0.207
Stream size : 603 MiB
Writing library : XviD 1.1.2 (UTC 2006-11-01)
-----------------------------------------------------------------------------------------------------------------------------
Audio
Format : MPEG Audio
Format version : Version 1
Format profile : Layer 3
Codec ID : 55
Codec ID/Hint : MP3
Duration : 1h 43mn
Bit rate mode : Variable
Bit rate : 119 Kbps
Minimum bit rate : 128 Kbps
Channel(s) : 2 channels
Sampling rate : 48.0 KHz
Resolution : 16 bits
Stream size : 88.1 MiB
Writing library : LAME3.97
Encoding settings : ABR
Language : english
-----------------------------------------------------------------------------------------------------------------------------


Email me for any requests at:
[email protected]

Or visit me at:
h33t.com

related torrents

Torrent name

health leech seeds Size
 

comments (0)

Main Menu