Horror

Candyman: Farewell to the Flesh (1995) DvdRip DivX [

  • Download 5x Faster
  • Download torrent
  • Direct Download
  • Rate this torrent +  |  -
Candyman: Farewell to the Flesh (1995) DvdRip DivX [

Anonymous and Free Direct Download 300GB+


Torrent info

Name:Candyman: Farewell to the Flesh (1995) DvdRip DivX [

Total Size: 697.76 MB

Magnet: Magnet Link

Seeds: 0

Leechers: 1

Stream: Watch Online @ Movie4u

Last Updated: 2015-09-04 05:37:11 (Update Now)

Torrent added: 2009-08-27 18:01:27



VPN For Torrents

Torrent Files List


Candyman - Farewell To The Flesh.part01.rar (Size: 697.76 MB) (Files: 51)

 Candyman - Farewell To The Flesh.part01.rar

14.31 MB

 Candyman - Farewell To The Flesh.part01.sfv

6.62 KB

 Candyman - Farewell To The Flesh.part02.rar

14.31 MB

 Candyman - Farewell To The Flesh.part03.rar

14.31 MB

 Candyman - Farewell To The Flesh.part04.rar

14.31 MB

 Candyman - Farewell To The Flesh.part05.rar

14.31 MB

 Candyman - Farewell To The Flesh.part06.rar

14.31 MB

 Candyman - Farewell To The Flesh.part07.rar

14.31 MB

 Candyman - Farewell To The Flesh.part08.rar

14.31 MB

 Candyman - Farewell To The Flesh.part09.rar

14.31 MB

 Candyman - Farewell To The Flesh.part10.rar

14.31 MB

 Candyman - Farewell To The Flesh.part11.rar

14.31 MB

 Candyman - Farewell To The Flesh.part12.rar

14.31 MB

 Candyman - Farewell To The Flesh.part13.rar

14.31 MB

 Candyman - Farewell To The Flesh.part14.rar

14.31 MB

 Candyman - Farewell To The Flesh.part15.rar

14.31 MB

 Candyman - Farewell To The Flesh.part16.rar

14.31 MB

 Candyman - Farewell To The Flesh.part17.rar

14.31 MB

 Candyman - Farewell To The Flesh.part18.rar

14.31 MB

 Candyman - Farewell To The Flesh.part19.rar

14.31 MB

 Candyman - Farewell To The Flesh.part20.rar

14.31 MB

 Candyman - Farewell To The Flesh.part21.rar

14.31 MB

 Candyman - Farewell To The Flesh.part22.rar

14.31 MB

 Candyman - Farewell To The Flesh.part23.rar

14.31 MB

 Candyman - Farewell To The Flesh.part24.rar

14.31 MB

 Candyman - Farewell To The Flesh.part25.rar

14.31 MB

 Candyman - Farewell To The Flesh.part26.rar

14.31 MB

 Candyman - Farewell To The Flesh.part27.rar

14.31 MB

 Candyman - Farewell To The Flesh.part28.rar

14.31 MB

 Candyman - Farewell To The Flesh.part29.rar

14.31 MB

 Candyman - Farewell To The Flesh.part30.rar

14.31 MB

 Candyman - Farewell To The Flesh.part31.rar

14.31 MB

 Candyman - Farewell To The Flesh.part32.rar

14.31 MB

 Candyman - Farewell To The Flesh.part33.rar

14.31 MB

 Candyman - Farewell To The Flesh.part34.rar

14.31 MB

 Candyman - Farewell To The Flesh.part35.rar

14.31 MB

 Candyman - Farewell To The Flesh.part36.rar

14.31 MB

 Candyman - Farewell To The Flesh.part37.rar

14.31 MB

 Candyman - Farewell To The Flesh.part38.rar

14.31 MB

 Candyman - Farewell To The Flesh.part39.rar

14.31 MB

 Candyman - Farewell To The Flesh.part40.rar

14.31 MB

 Candyman - Farewell To The Flesh.part41.rar

14.31 MB

 Candyman - Farewell To The Flesh.part42.rar

14.31 MB

 Candyman - Farewell To The Flesh.part43.rar

14.31 MB

 Candyman - Farewell To The Flesh.part44.rar

14.31 MB

 Candyman - Farewell To The Flesh.part45.rar

14.31 MB

 Candyman - Farewell To The Flesh.part46.rar

14.31 MB

 Candyman - Farewell To The Flesh.part47.rar

14.31 MB

 Candyman - Farewell To The Flesh.part48.rar

14.31 MB

 Candyman - Farewell To The Flesh.part49.rar

11.10 MB

 candyman 2.nfo

2.13 KB
 

tracker

leech seeds
 

Torrent description

General
Complete name : C:\Torrent Creation\Candyman 2\Candyman - Farewell To The Flesh.avi
Format : AVI
Format/Info : Audio Video Interleave
File size : 698 MiB
Duration : 1h 34mn
Overal bit rate : 1032 Kbps
Movie name : "Candyman - Farewell to the Flesh" {1995}
Director : Directed by Bill Condon
Subject : "Candyman - Farewell to the Flesh" {1995}
Writing application : Nandub v1.0rc2
Writing library : Nandub build 1852/release
Copyright : [email protected]_productions

Video
Format : MPEG-4 Visual
Format settings, BVOP : Yes
Format settings, QPel : No
Format settings, GMC : No warppoints
Format settings, Matrix : Default
Codec ID : DIVX
Codec ID/Info : Project Mayo
Codec ID/Hint : DivX 4
Duration : 1h 34mn
Bit rate : 925 Kbps
Width : 640 pixels
Height : 352 pixels
Display aspect ratio : 16/9
Frame rate : 23.976 fps
Resolution : 8 bits
Scan type : Progressive
Bits/(Pixel*Frame) : 0.171
Stream size : 625 MiB

Audio
Format : MPEG Audio
Format version : Version 1
Format profile : Layer 3
Codec ID : 55
Codec ID/Hint : MP3
Duration : 1h 34mn
Bit rate mode : Variable
Bit rate : 95.0 Kbps
Channel(s) : 2 channels
Sampling rate : 48.0 KHz
Resolution : 16 bits
Stream size : 64.1 MiB
Writing library : LAME3.91
Encoding settings : ABR

Link: http://www.imdb.com/title/tt0112625/

related torrents

Torrent name

health leech seeds Size

Farewell to the King

99 22 1.38 GB 0
 


comments (0)

Main Menu