Horror

Candyman: Day of the Dead (1999) DvdRip DivX [

  • Download 5x Faster
  • Download torrent
  • Direct Download
  • Rate this torrent +  |  -
Candyman: Day of the Dead (1999) DvdRip DivX [

Anonymous and Free Direct Download 300GB+


Torrent info

Name:Candyman: Day of the Dead (1999) DvdRip DivX [

Total Size: 668.48 MB

Magnet: Magnet Link

Seeds: 0

Leechers: 0

Stream: Watch Online @ Movie4u

Last Updated: 2011-01-06 08:05:21 (Update Now)

Torrent added: 2009-08-27 18:01:26



VPN For Torrents

Torrent Files List


Candyman - Day Of The Dead.part01.rar (Size: 668.48 MB) (Files: 49)

 Candyman - Day Of The Dead.part01.rar

14.31 MB

 Candyman - Day Of The Dead.part01.sfv

5.81 KB

 Candyman - Day Of The Dead.part02.rar

14.31 MB

 Candyman - Day Of The Dead.part03.rar

14.31 MB

 Candyman - Day Of The Dead.part04.rar

14.31 MB

 Candyman - Day Of The Dead.part05.rar

14.31 MB

 Candyman - Day Of The Dead.part06.rar

14.31 MB

 Candyman - Day Of The Dead.part07.rar

14.31 MB

 Candyman - Day Of The Dead.part08.rar

14.31 MB

 Candyman - Day Of The Dead.part09.rar

14.31 MB

 Candyman - Day Of The Dead.part10.rar

14.31 MB

 Candyman - Day Of The Dead.part11.rar

14.31 MB

 Candyman - Day Of The Dead.part12.rar

14.31 MB

 Candyman - Day Of The Dead.part13.rar

14.31 MB

 Candyman - Day Of The Dead.part14.rar

14.31 MB

 Candyman - Day Of The Dead.part15.rar

14.31 MB

 Candyman - Day Of The Dead.part16.rar

14.31 MB

 Candyman - Day Of The Dead.part17.rar

14.31 MB

 Candyman - Day Of The Dead.part18.rar

14.31 MB

 Candyman - Day Of The Dead.part19.rar

14.31 MB

 Candyman - Day Of The Dead.part20.rar

14.31 MB

 Candyman - Day Of The Dead.part21.rar

14.31 MB

 Candyman - Day Of The Dead.part22.rar

14.31 MB

 Candyman - Day Of The Dead.part23.rar

14.31 MB

 Candyman - Day Of The Dead.part24.rar

14.31 MB

 Candyman - Day Of The Dead.part25.rar

14.31 MB

 Candyman - Day Of The Dead.part26.rar

14.31 MB

 Candyman - Day Of The Dead.part27.rar

14.31 MB

 Candyman - Day Of The Dead.part28.rar

14.31 MB

 Candyman - Day Of The Dead.part29.rar

14.31 MB

 Candyman - Day Of The Dead.part30.rar

14.31 MB

 Candyman - Day Of The Dead.part31.rar

14.31 MB

 Candyman - Day Of The Dead.part32.rar

14.31 MB

 Candyman - Day Of The Dead.part33.rar

14.31 MB

 Candyman - Day Of The Dead.part34.rar

14.31 MB

 Candyman - Day Of The Dead.part35.rar

14.31 MB

 Candyman - Day Of The Dead.part36.rar

14.31 MB

 Candyman - Day Of The Dead.part37.rar

14.31 MB

 Candyman - Day Of The Dead.part38.rar

14.31 MB

 Candyman - Day Of The Dead.part39.rar

14.31 MB

 Candyman - Day Of The Dead.part40.rar

14.31 MB

 Candyman - Day Of The Dead.part41.rar

14.31 MB

 Candyman - Day Of The Dead.part42.rar

14.31 MB

 Candyman - Day Of The Dead.part43.rar

14.31 MB

 Candyman - Day Of The Dead.part44.rar

14.31 MB

 Candyman - Day Of The Dead.part45.rar

14.31 MB

 Candyman - Day Of The Dead.part46.rar

14.31 MB

 Candyman - Day Of The Dead.part47.rar

10.43 MB

 candyman 3.nfo

1.68 KB
 

Announce URL: http://tracker.ilovetorrents.com/announce.php

Torrent description

General
Complete name : C:\Torrent Creation\Candyman 3\Candyman - Day Of The Dead.avi
Format : AVI
Format/Info : Audio Video Interleave
File size : 668 MiB
Duration : 1h 33mn
Overal bit rate : 1001 Kbps
Writing library : VirtualDub build 13870/release

Video
Format : MPEG-4 Visual
Format settings, BVOP : Yes
Format settings, QPel : No
Format settings, GMC : No warppoints
Format settings, Matrix : Custom (Gray)
Codec ID : DIV3
Codec ID/Hint : DivX 3 Low
Duration : 1h 33mn
Bit rate : 865 Kbps
Width : 640 pixels
Height : 480 pixels
Display aspect ratio : 4/3
Frame rate : 29.970 fps
Resolution : 97 bits
Scan type : Progressive
Bits/(Pixel*Frame) : 0.094
Stream size : 578 MiB

Audio
Format : MPEG Audio
Format version : Version 1
Format profile : Layer 3
Codec ID : 55
Codec ID/Hint : MP3
Duration : 1h 33mn
Bit rate mode : Constant
Bit rate : 128 Kbps
Channel(s) : 2 channels
Sampling rate : 48.0 KHz
Resolution : 16 bits
Stream size : 85.5 MiB

Link: http://www.imdb.com/title/tt0165662/

related torrents

Torrent name

health leech seeds Size
 


comments (0)

Main Menu