Horror

Candyman 1 mazysnuthouse org

  • Download 5x Faster
  • Download torrent
  • Direct Download
  • Rate this torrent +  |  -
Candyman 1 mazysnuthouse org

Anonymous and Free Direct Download 300GB+


Torrent info

Name:Candyman 1 mazysnuthouse org

Total Size: 675.21 MB

Magnet: Magnet Link

Seeds: 0

Leechers: 0

Stream: Watch Online @ Movie4u

Last Updated: 2010-02-06 08:03:43 (Update Now)

Torrent added: 2009-08-27 18:00:13



VPN For Torrents

Torrent Files List


Candyman.part01.rar (Size: 675.21 MB) (Files: 50)

 Candyman.part01.rar

14.31 MB

 Candyman.part02.rar

14.31 MB

 Candyman.part03.rar

14.31 MB

 Candyman.part04.rar

14.31 MB

 Candyman.part05.rar

14.31 MB

 Candyman.part06.rar

14.31 MB

 Candyman.part07.rar

14.31 MB

 Candyman.part08.rar

14.31 MB

 Candyman.part09.rar

14.31 MB

 Candyman.part10.rar

14.31 MB

 Candyman.part11.rar

14.31 MB

 Candyman.part12.rar

14.31 MB

 Candyman.part13.rar

14.31 MB

 Candyman.part14.rar

14.31 MB

 Candyman.part15.rar

14.31 MB

 Candyman.part16.rar

14.31 MB

 Candyman.part17.rar

14.31 MB

 Candyman.part18.rar

14.31 MB

 Candyman.part19.rar

14.31 MB

 Candyman.part20.rar

14.31 MB

 Candyman.part21.rar

14.31 MB

 Candyman.part22.rar

14.31 MB

 Candyman.part23.rar

14.31 MB

 Candyman.part24.rar

14.31 MB

 Candyman.part25.rar

14.31 MB

 Candyman.part26.rar

14.31 MB

 Candyman.part27.rar

14.31 MB

 Candyman.part28.rar

14.31 MB

 Candyman.part29.rar

14.31 MB

 Candyman.part30.rar

14.31 MB

 Candyman.part31.rar

14.31 MB

 Candyman.part32.rar

14.31 MB

 Candyman.part33.rar

14.31 MB

 Candyman.part34.rar

14.31 MB

 Candyman.part35.rar

14.31 MB

 Candyman.part36.rar

14.31 MB

 Candyman.part37.rar

14.31 MB

 Candyman.part38.rar

14.31 MB

 Candyman.part39.rar

14.31 MB

 Candyman.part40.rar

14.31 MB

 Candyman.part41.rar

14.31 MB

 Candyman.part42.rar

14.31 MB

 Candyman.part43.rar

14.31 MB

 Candyman.part44.rar

14.31 MB

 Candyman.part45.rar

14.31 MB

 Candyman.part46.rar

14.31 MB

 Candyman.part47.rar

14.31 MB

 Candyman.part48.rar

2.86 MB

 candyman 1.nfo

1.51 KB

 candyman 1.sfv

4.24 KB
 

Announce URL: http://mazysnuthouse.org/announce.php?passkey=tssespecialtorrentv1byxamsep2007

Torrent description

General
Complete name : C:Torrent CreationCandyman 1Candyman.avi
Format : AVI
Format/Info : Audio Video Interleave
File size : 675 MiB
Duration : 1h 38mn
Overal bit rate : 955 Kbps

Video
Format : MPEG-4 Visual
Codec ID : DIV3
Codec ID/Hint : DivX 3 Low
Duration : 1h 38mn
Bit rate : 849 Kbps
Width : 576 pixels
Height : 432 pixels
Display aspect ratio : 4/3
Frame rate : 23.976 fps
Resolution : 24 bits
Bits/(Pixel*Frame) : 0.142
Stream size : 601 MiB

Audio
Format : MPEG Audio
Format version : Version 1
Format profile : Layer 3
Codec ID : 55
Codec ID/Hint : MP3
Duration : 1h 38mn
Bit rate mode : Constant
Bit rate : 96.0 Kbps
Channel(s) : 2 channels
Sampling rate : 48.0 KHz
Resolution : 16 bits
Video delay : 24ms
Stream size : 67.9 MiB
Title : Audio Stream
Writing library : LAME3.92

related torrents

Torrent name

health leech seeds Size
 


comments (0)

Main Menu