Music - Other

Spiderman Tracks][Flac][hectorbusinspector][1337x org]

  • Download 5x Faster
  • Download torrent
  • Direct Download
  • Rate this torrent +  |  -
Spiderman Tracks][Flac][hectorbusinspector][1337x org]

Anonymous and Direct Download 300GB+ free


Torrent info

Name:Spiderman Tracks][Flac][hectorbusinspector][1337x org]

Total Size: 455.26 MB

Magnet: Magnet Link

Seeds: 6

Leechers: 2

Stream: Watch Online @ Movie4u

Last Updated: 2010-10-04 19:36:00 (Update Now)

Torrent added: 2009-08-27 17:59:42




Torrent Files List


Tracks (Size: 455.26 MB) (Files: 24)

 Tracks

  Soundtrack

   Homem-Aranha

    Soundtrack - Homem-Aranha - 01. - Theme from Spider-man.flac

5.55 MB

    Soundtrack - Homem-Aranha - 02. chad kroeger - Hero.flac

23.39 MB

    Soundtrack - Homem-Aranha - 03. sum 41 - What We re All About.flac

26.65 MB

    Soundtrack - Homem-Aranha - 04. black lab - Learn to Crawl.flac

27.67 MB

    Soundtrack - Homem-Aranha - 05. bleu - Somebody Else.flac

27.61 MB

    Soundtrack - Homem-Aranha - 06. alien ant farm - Bug Bytes.flac

26.65 MB

    Soundtrack - Homem-Aranha - 07. default - Blind.flac

23.07 MB

    Soundtrack - Homem-Aranha - 08. corey taylor - Bother.flac

23.48 MB

    Soundtrack - Homem-Aranha - 09. greenwheel - Shelter.flac

25.71 MB

    Soundtrack - Homem-Aranha - 10. the strokes - When It Started.flac

18.35 MB

    Soundtrack - Homem-Aranha - 11. the hives - Hate to Say I Told You So.flac

23.55 MB

    Soundtrack - Homem-Aranha - 12. theory of a dead man - Invisible Man.flac

19.53 MB

    Soundtrack - Homem-Aranha - 13. pete yorn - Undercover.flac

29.91 MB

    Soundtrack - Homem-Aranha - 14. macy gray - My Nutmeg Phantasy.flac

31.43 MB

    Soundtrack - Homem-Aranha - 15. injected - I-IV-V.flac

22.27 MB

    Soundtrack - Homem-Aranha - 16. jerry cantreel - She Was My Girl.flac

33.48 MB

    Soundtrack - Homem-Aranha - 17. danny elfman - Main Titles.flac

22.85 MB

    Soundtrack - Homem-Aranha - 18. danny elfman - Farewell.flac

23.06 MB

    Soundtrack - Homem-Aranha - 19. aerosmith - Theme from Spider-man (Aerosmith).flac

20.19 MB

 Art

  Spiderman 001.jpg

556.19 KB

  001.jpg

290.89 KB

 introduction to us, we are not pirates.txt

4.55 KB

 spiderman.txt

24.62 KB

 tracked_by_h33t_com.txt

0.02 KB
 

Announce URL: http://www.h33t.com:3310/announce

Torrent description

Music from and Inspired by Spider-Man is a 2002 soundtrack album for the film Spider-Man. Although it contains a portion of the film score by Danny Elfman,
a more complete album of Elfman's work was released as Spider-Man: Original Motion Picture Score.
All in the Suit That You Wear by the group Stone Temple Pilots was pulled out at the last minute when they couldn't get it as the lead track.
******************************************************************************************************************************************************************

[edit] Track listing
# Title Artist Length
1. "Theme from Spider-Man (Classic TV Series Theme Song)" Paul Francis Webster & Robert Harris 1:01

2. "Hero" Chad Kroeger Feat. Josey Scott 3:19

3. "What We're All About (Original Version)" Sum 41 3:35

4. "Learn to Crawl" Black Lab 3:36

5. "Somebody Else" Bleu 3:38

6. "Bug Bytes" Alien Ant Farm 3:32

7. "Blind" Default 3:11

8. "Bother" Stone Sour 4:00

9. "Shelter" Greenwheel 3:32

10. "When It Started" The Strokes 2:56

11. "Hate to Say I Told You So" The Hives 3:22

12. "Invisible Man" Theory of a Deadman 2:40

13. "Undercover" Pete Yorn 3:59

14. "My Nutmeg Phantasy (Tom Morello Mix)" Macy Gray Feat. Angie Stone and Mos Def 4:29

15. "I - IV - V" Injected 3:03

16. "She Was My Girl" Jerry Cantrell 4:18

17. "Main Titles" Danny Elfman 3:42

18. "Farewell" Danny Elfman 4:43

19. "Theme from Spider-Man" Aerosmith 2:57

20. "Dunia" /rif* 4:34

Asian Edition Bonus track
*****************************************************************************************************************************************************************

General
Complete name : Spiderman Tracks][Flac][hectorbusinspector]\Tracks\Soundtrack\Homem-Aranha\Soundtrack - Homem-Aranha - 01. - Theme from Spider-man.flac
Format : FLAC
Format/Info : Free Lossless Audio Codec
File size : 5.55 MiB
Duration : 1mn 1s
Overall bit rate : 760 Kbps
Album : Homem-Aranha
Track name : / Theme from Spider-man
Track name/Position : 1
Performer : Soundtrack
Genre : SoundTrack
Recorded date : 2002

Audio
Format : FLAC
Format/Info : Free Lossless Audio Codec
Duration : 1mn 1s
Bit rate mode : Variable
Bit rate : 759 Kbps
Channel(s) : 2 channels
Sampling rate : 44.1 KHz
Resolution : 16 bits
Stream size : 5.55 MiB (100%)
Writing library : libFLAC 1.2.1 (UTC 2007-09-17)

General
Complete name : Spiderman Tracks][Flac][hectorbusinspector]\Tracks\Soundtrack\Homem-Aranha\Soundtrack - Homem-Aranha - 02. chad kroeger - Hero.flac
Format : FLAC
Format/Info : Free Lossless Audio Codec
File size : 23.4 MiB
Duration : 3mn 19s
Overall bit rate : 985 Kbps
Album : Homem-Aranha
Track name : chad kroeger / Hero
Track name/Position : 2
Performer : Soundtrack
Genre : SoundTrack
Recorded date : 2002

Audio
Format : FLAC
Format/Info : Free Lossless Audio Codec
Duration : 3mn 19s
Bit rate mode : Variable
Bit rate : 984 Kbps
Channel(s) : 2 channels
Sampling rate : 44.1 KHz
Resolution : 16 bits
Stream size : 23.4 MiB (100%)
Writing library : libFLAC 1.2.1 (UTC 2007-09-17)

General
Complete name : Spiderman Tracks][Flac][hectorbusinspector]\Tracks\Soundtrack\Homem-Aranha\Soundtrack - Homem-Aranha - 03. sum 41 - What We re All About.flac
Format : FLAC
Format/Info : Free Lossless Audio Codec
File size : 26.7 MiB
Duration : 3mn 35s
Overall bit rate : 1 038 Kbps
Album : Homem-Aranha
Track name : sum 41 / What We re All About
Track name/Position : 3
Performer : Soundtrack
Genre : SoundTrack
Recorded date : 2002

Audio
Format : FLAC
Format/Info : Free Lossless Audio Codec
Duration : 3mn 35s
Bit rate mode : Variable
Bit rate : 1 038 Kbps
Channel(s) : 2 channels
Sampling rate : 44.1 KHz
Resolution : 16 bits
Stream size : 26.6 MiB (100%)
Writing library : libFLAC 1.2.1 (UTC 2007-09-17)

General
Complete name : Spiderman Tracks][Flac][hectorbusinspector]\Tracks\Soundtrack\Homem-Aranha\Soundtrack - Homem-Aranha - 04. black lab - Learn to Crawl.flac
Format : FLAC
Format/Info : Free Lossless Audio Codec
File size : 27.7 MiB
Duration : 3mn 36s
Overall bit rate : 1 074 Kbps
Album : Homem-Aranha
Track name : black lab / Learn to Crawl
Track name/Position : 4
Performer : Soundtrack
Genre : SoundTrack
Recorded date : 2002

Audio
Format : FLAC
Format/Info : Free Lossless Audio Codec
Duration : 3mn 36s
Bit rate mode : Variable
Bit rate : 1 074 Kbps
Channel(s) : 2 channels
Sampling rate : 44.1 KHz
Resolution : 16 bits
Stream size : 27.7 MiB (100%)
Writing library : libFLAC 1.2.1 (UTC 2007-09-17)

General
Complete name : Spiderman Tracks][Flac][hectorbusinspector]\Tracks\Soundtrack\Homem-Aranha\Soundtrack - Homem-Aranha - 05. bleu - Somebody Else.flac
Format : FLAC
Format/Info : Free Lossless Audio Codec
File size : 27.6 MiB
Duration : 3mn 37s
Overall bit rate : 1 063 Kbps
Album : Homem-Aranha
Track name : bleu / Somebody Else
Track name/Position : 5
Performer : Soundtrack
Genre : SoundTrack
Recorded date : 2002

Audio
Format : FLAC
Format/Info : Free Lossless Audio Codec
Duration : 3mn 37s
Bit rate mode : Variable
Bit rate : 1 063 Kbps
Channel(s) : 2 channels
Sampling rate : 44.1 KHz
Resolution : 16 bits
Stream size : 27.6 MiB (100%)
Writing library : libFLAC 1.2.1 (UTC 2007-09-17)

General
Complete name : Spiderman Tracks][Flac][hectorbusinspector]\Tracks\Soundtrack\Homem-Aranha\Soundtrack - Homem-Aranha - 06. alien ant farm - Bug Bytes.flac
Format : FLAC
Format/Info : Free Lossless Audio Codec
File size : 26.7 MiB
Duration : 3mn 32s
Overall bit rate : 1 054 Kbps
Album : Homem-Aranha
Track name : alien ant farm / Bug Bytes
Track name/Position : 6
Performer : Soundtrack
Genre : SoundTrack
Recorded date : 2002

Audio
Format : FLAC
Format/Info : Free Lossless Audio Codec
Duration : 3mn 32s
Bit rate mode : Variable
Bit rate : 1 054 Kbps
Channel(s) : 2 channels
Sampling rate : 44.1 KHz
Resolution : 16 bits
Stream size : 26.6 MiB (100%)
Writing library : libFLAC 1.2.1 (UTC 2007-09-17)

General
Complete name : Spiderman Tracks][Flac][hectorbusinspector]\Tracks\Soundtrack\Homem-Aranha\Soundtrack - Homem-Aranha - 07. default - Blind.flac
Format : FLAC
Format/Info : Free Lossless Audio Codec
File size : 23.1 MiB
Duration : 3mn 10s
Overall bit rate : 1 015 Kbps
Album : Homem-Aranha
Track name : default / Blind
Track name/Position : 7
Performer : Soundtrack
Genre : SoundTrack
Recorded date : 2002

Audio
Format : FLAC
Format/Info : Free Lossless Audio Codec
Duration : 3mn 10s
Bit rate mode : Variable
Bit rate : 1 015 Kbps
Channel(s) : 2 channels
Sampling rate : 44.1 KHz
Resolution : 16 bits
Stream size : 23.1 MiB (100%)
Writing library : libFLAC 1.2.1 (UTC 2007-09-17)

General
Complete name : Spiderman Tracks][Flac][hectorbusinspector]\Tracks\Soundtrack\Homem-Aranha\Soundtrack - Homem-Aranha - 08. corey taylor - Bother.flac
Format : FLAC
Format/Info : Free Lossless Audio Codec
File size : 23.5 MiB
Duration : 4mn 0s
Overall bit rate : 819 Kbps
Album : Homem-Aranha
Track name : corey taylor / Bother
Track name/Position : 8
Performer : Soundtrack
Genre : SoundTrack
Recorded date : 2002

Audio
Format : FLAC
Format/Info : Free Lossless Audio Codec
Duration : 4mn 0s
Bit rate mode : Variable
Bit rate : 819 Kbps
Channel(s) : 2 channels
Sampling rate : 44.1 KHz
Resolution : 16 bits
Stream size : 23.5 MiB (100%)
Writing library : libFLAC 1.2.1 (UTC 2007-09-17)

General
Complete name : Spiderman Tracks][Flac][hectorbusinspector]\Tracks\Soundtrack\Homem-Aranha\Soundtrack - Homem-Aranha - 09. greenwheel - Shelter.flac
Format : FLAC
Format/Info : Free Lossless Audio Codec
File size : 25.7 MiB
Duration : 3mn 31s
Overall bit rate : 1 019 Kbps
Album : Homem-Aranha
Track name : greenwheel / Shelter
Track name/Position : 9
Performer : Soundtrack
Genre : SoundTrack
Recorded date : 2002

Audio
Format : FLAC
Format/Info : Free Lossless Audio Codec
Duration : 3mn 31s
Bit rate mode : Variable
Bit rate : 1 019 Kbps
Channel(s) : 2 channels
Sampling rate : 44.1 KHz
Resolution : 16 bits
Stream size : 25.7 MiB (100%)
Writing library : libFLAC 1.2.1 (UTC 2007-09-17)

General
Complete name : Spiderman Tracks][Flac][hectorbusinspector]\Tracks\Soundtrack\Homem-Aranha\Soundtrack - Homem-Aranha - 10. the strokes - When It Started.flac
Format : FLAC
Format/Info : Free Lossless Audio Codec
File size : 18.4 MiB
Duration : 2mn 56s
Overall bit rate : 874 Kbps
Album : Homem-Aranha
Track name : the strokes / When It Started
Track name/Position : 10
Performer : Soundtrack
Genre : SoundTrack
Recorded date : 2002

Audio
Format : FLAC
Format/Info : Free Lossless Audio Codec
Duration : 2mn 56s
Bit rate mode : Variable
Bit rate : 874 Kbps
Channel(s) : 2 channels
Sampling rate : 44.1 KHz
Resolution : 16 bits
Stream size : 18.3 MiB (100%)
Writing library : libFLAC 1.2.1 (UTC 2007-09-17)

General
Complete name : Spiderman Tracks][Flac][hectorbusinspector]\Tracks\Soundtrack\Homem-Aranha\Soundtrack - Homem-Aranha - 11. the hives - Hate to Say I Told You So.flac
Format : FLAC
Format/Info : Free Lossless Audio Codec
File size : 23.6 MiB
Duration : 3mn 22s
Overall bit rate : 977 Kbps
Album : Homem-Aranha
Track name : the hives / Hate to Say I Told You So
Track name/Position : 11
Performer : Soundtrack
Genre : SoundTrack
Recorded date : 2002

Audio
Format : FLAC
Format/Info : Free Lossless Audio Codec
Duration : 3mn 22s
Bit rate mode : Variable
Bit rate : 977 Kbps
Channel(s) : 2 channels
Sampling rate : 44.1 KHz
Resolution : 16 bits
Stream size : 23.5 MiB (100%)
Writing library : libFLAC 1.2.1 (UTC 2007-09-17)

General
Complete name : Spiderman Tracks][Flac][hectorbusinspector]\Tracks\Soundtrack\Homem-Aranha\Soundtrack - Homem-Aranha - 12. theory of a dead man - Invisible Man.flac
Format : FLAC
Format/Info : Free Lossless Audio Codec
File size : 19.5 MiB
Duration : 2mn 39s
Overall bit rate : 1 025 Kbps
Album : Homem-Aranha
Track name : theory of a dead man / Invisible Man
Track name/Position : 12
Performer : Soundtrack
Genre : SoundTrack
Recorded date : 2002

Audio
Format : FLAC
Format/Info : Free Lossless Audio Codec
Duration : 2mn 39s
Bit rate mode : Variable
Bit rate : 1 025 Kbps
Channel(s) : 2 channels
Sampling rate : 44.1 KHz
Resolution : 16 bits
Stream size : 19.5 MiB (100%)
Writing library : libFLAC 1.2.1 (UTC 2007-09-17)

General
Complete name : Spiderman Tracks][Flac][hectorbusinspector]\Tracks\Soundtrack\Homem-Aranha\Soundtrack - Homem-Aranha - 13. pete yorn - Undercover.flac
Format : FLAC
Format/Info : Free Lossless Audio Codec
File size : 29.9 MiB
Duration : 3mn 59s
Overall bit rate : 1 049 Kbps
Album : Homem-Aranha
Track name : pete yorn / Undercover
Track name/Position : 13
Performer : Soundtrack
Genre : SoundTrack
Recorded date : 2002

Audio
Format : FLAC
Format/Info : Free Lossless Audio Codec
Duration : 3mn 59s
Bit rate mode : Variable
Bit rate : 1 049 Kbps
Channel(s) : 2 channels
Sampling rate : 44.1 KHz
Resolution : 16 bits
Stream size : 29.9 MiB (100%)
Writing library : libFLAC 1.2.1 (UTC 2007-09-17)

General
Complete name : Spiderman Tracks][Flac][hectorbusinspector]\Tracks\Soundtrack\Homem-Aranha\Soundtrack - Homem-Aranha - 14. macy gray - My Nutmeg Phantasy.flac
Format : FLAC
Format/Info : Free Lossless Audio Codec
File size : 31.4 MiB
Duration : 4mn 29s
Overall bit rate : 979 Kbps
Album : Homem-Aranha
Track name : macy gray / My Nutmeg Phantasy
Track name/Position : 14
Performer : Soundtrack
Genre : SoundTrack
Recorded date : 2002

Audio
Format : FLAC
Format/Info : Free Lossless Audio Codec
Duration : 4mn 29s
Bit rate mode : Variable
Bit rate : 979 Kbps
Channel(s) : 2 channels
Sampling rate : 44.1 KHz
Resolution : 16 bits
Stream size : 31.4 MiB (100%)
Writing library : libFLAC 1.2.1 (UTC 2007-09-17)

General
Complete name : Spiderman Tracks][Flac][hectorbusinspector]\Tracks\Soundtrack\Homem-Aranha\Soundtrack - Homem-Aranha - 15. injected - I-IV-V.flac
Format : FLAC
Format/Info : Free Lossless Audio Codec
File size : 22.3 MiB
Duration : 3mn 2s
Overall bit rate : 1 022 Kbps
Album : Homem-Aranha
Track name : injected / I-IV-V
Track name/Position : 15
Performer : Soundtrack
Genre : SoundTrack
Recorded date : 2002

Audio
Format : FLAC
Format/Info : Free Lossless Audio Codec
Duration : 3mn 2s
Bit rate mode : Variable
Bit rate : 1 022 Kbps
Channel(s) : 2 channels
Sampling rate : 44.1 KHz
Resolution : 16 bits
Stream size : 22.3 MiB (100%)
Writing library : libFLAC 1.2.1 (UTC 2007-09-17)

General
Complete name : Spiderman Tracks][Flac][hectorbusinspector]\Tracks\Soundtrack\Homem-Aranha\Soundtrack - Homem-Aranha - 16. jerry cantreel - She Was My Girl.flac
Format : FLAC
Format/Info : Free Lossless Audio Codec
File size : 33.5 MiB
Duration : 4mn 17s
Overall bit rate : 1 089 Kbps
Album : Homem-Aranha
Track name : jerry cantreel / She Was My Girl
Track name/Position : 16
Performer : Soundtrack
Genre : SoundTrack
Recorded date : 2002

Audio
Format : FLAC
Format/Info : Free Lossless Audio Codec
Duration : 4mn 17s
Bit rate mode : Variable
Bit rate : 1 089 Kbps
Channel(s) : 2 channels
Sampling rate : 44.1 KHz
Resolution : 16 bits
Stream size : 33.5 MiB (100%)
Writing library : libFLAC 1.2.1 (UTC 2007-09-17)

General
Complete name : Spiderman Tracks][Flac][hectorbusinspector]\Tracks\Soundtrack\Homem-Aranha\Soundtrack - Homem-Aranha - 17. danny elfman - Main Titles.flac
Format : FLAC
Format/Info : Free Lossless Audio Codec
File size : 22.9 MiB
Duration : 3mn 42s
Overall bit rate : 863 Kbps
Album : Homem-Aranha
Track name : danny elfman / Main Titles
Track name/Position : 17
Performer : Soundtrack
Genre : SoundTrack
Recorded date : 2002

Audio
Format : FLAC
Format/Info : Free Lossless Audio Codec
Duration : 3mn 42s
Bit rate mode : Variable
Bit rate : 863 Kbps
Channel(s) : 2 channels
Sampling rate : 44.1 KHz
Resolution : 16 bits
Stream size : 22.8 MiB (100%)
Writing library : libFLAC 1.2.1 (UTC 2007-09-17)

General
Complete name : Spiderman Tracks][Flac][hectorbusinspector]\Tracks\Soundtrack\Homem-Aranha\Soundtrack - Homem-Aranha - 18. danny elfman - Farewell.flac
Format : FLAC
Format/Info : Free Lossless Audio Codec
File size : 23.1 MiB
Duration : 4mn 43s
Overall bit rate : 683 Kbps
Album : Homem-Aranha
Track name : danny elfman / Farewell
Track name/Position : 18
Performer : Soundtrack
Genre : SoundTrack
Recorded date : 2002

Audio
Format : FLAC
Format/Info : Free Lossless Audio Codec
Duration : 4mn 43s
Bit rate mode : Variable
Bit rate : 683 Kbps
Channel(s) : 2 channels
Sampling rate : 44.1 KHz
Resolution : 16 bits
Stream size : 23.0 MiB (100%)
Writing library : libFLAC 1.2.1 (UTC 2007-09-17)

General
Complete name : Spiderman Tracks][Flac][hectorbusinspector]\Tracks\Soundtrack\Homem-Aranha\Soundtrack - Homem-Aranha - 19. aerosmith - Theme from Spider-man (Aerosmith).flac
Format : FLAC
Format/Info : Free Lossless Audio Codec
File size : 20.2 MiB
Duration : 2mn 57s
Overall bit rate : 956 Kbps
Album : Homem-Aranha
Track name : aerosmith / Theme from Spider-man (Aerosmith)
Track name/Position : 19
Performer : Soundtrack
Genre : SoundTrack
Recorded date : 2002

Audio
Format : FLAC
Format/Info : Free Lossless Audio Codec
Duration : 2mn 57s
Bit rate mode : Variable
Bit rate : 956 Kbps
Channel(s) : 2 channels
Sampling rate : 44.1 KHz
Resolution : 16 bits
Stream size : 20.2 MiB (100%)
Writing library : libFLAC 1.2.1 (UTC 2007-09-17)
***********************************************************************************************************************************************************************************
Flac

Art Info

H33t.com

1337x.org

Tell A Friend.
*********************************************************************************************************************************************************************************



related torrents

Torrent name

health leech seeds Size
 


comments (0)

Main Menu