Horror

Broken (2006) DVDRip XviD

  • Download 5x Faster
  • Download torrent
  • Direct Download
  • Rate this torrent +  |  -
Broken (2006) DVDRip XviD

Free and Direct Download with Usenet 300GB+ free


Torrent info

Name:Broken (2006) DVDRip XviD

Total Size: 721.74 MB

Magnet: Magnet Link

Seeds: 0

Leechers: 0

Stream: Watch Online @ Movie4u

Last Updated: 2013-07-13 10:34:56 (Update Now)

Torrent added: 2009-08-27 17:51:28




Torrent Files List


Broken.avi (Size: 721.74 MB) (Files: 1)

 Broken.avi

721.74 MB
 

Announce URL:

Torrent description

Broken [2006] (based on true story)

Capitalising on the success of films like "Saw" and "Hostel", Broken gives the survive-or-die scenario an al fresco spin. The premise is somewhat familiar; a woman is abducted and taken to a remote part of the woods, where she is subjected to unthinkable torments by her cruel and sadistic captor. Her ordeal is made all the worse by not knowing her daughter’s whereabouts... or if indeed she’s still alive. Why any of this is happening is unclear, and it’s this apparent lack of motive that heightens the tension to an almost unbearable degree. Directors Simon Boyes and Adam Mason prove that you don’t need a huge budget to unnerve your audience; just a creepy setting and an inventive, albeit twisted, imagination.

Rated R for strong brutal violence and torture, language and some sexuality/nudity.

AKA:

Broken - Keiner kann dich retten - Germany (DVD title)
Jigsaw: Dead or Alive - Japan (DVD title) (English title)
Murtud - Estonia
Shizofreneia - Greece (DVD title)
The Hearteater - UK (working title)




General
Complete name : Broken.avi
Format : AVI
Format/Info : Audio Video Interleave
File size : 722 MiB
Duration : 1h 28mn
Overall bit rate : 1 141 Kbps

Video
Format : MPEG-4 Visual
Format profile : [email protected]
Format settings, BVOP : No
Format settings, QPel : No
Format settings, GMC : No warppoints
Format settings, Matrix : Default
Codec ID : XVID
Codec ID/Hint : XviD
Duration : 1h 28mn
Bit rate : 967 Kbps
Width : 640 pixels
Height : 360 pixels
Display aspect ratio : 16/9
Frame rate : 29.970 fps
Original frame rate : 29.969 fps
Resolution : 24 bits
Colorimetry : 4:2:0
Scan type : Progressive
Bits/(Pixel*Frame) : 0.140
Stream size : 612 MiB (85%)
Writing library : Magic0432

Audio
Format : MPEG Audio
Format version : Version 1
Format profile : Layer 3
Codec ID : 55
Codec ID/Hint : MP3
Duration : 1h 28mn
Bit rate mode : Constant
Bit rate : 160 Kbps
Channel(s) : 2 channels
Sampling rate : 44.1 KHz
Resolution : 16 bits
Stream size : 101 MiB (14%)
Alignment : Aligned on interleaves
Interleave, duration : 26 ms (0.78 video frame)
Writing library : LAME3.97


Thumbnailed screens:

http://bayimg.com/haOgNaabE



Please help your fellow pirates by seeding after download!

related torrents

Torrent name

health leech seeds Size

Broken 2006 XViD DMan79

0 0 703.94 MB 0
 

comments (0)

Main Menu