Horror

Bride of Re Animator Xvid[

  • Download 5x Faster
  • Download torrent
  • Direct Download
  • Rate this torrent +  |  -
Bride of Re Animator Xvid[

Free and Direct Download with Usenet.nl 300GB+ free


Torrent info

Name:Bride of Re Animator Xvid[

Total Size: 699.94 MB

Magnet: Magnet Link

Seeds: 0

Leechers: 0

Stream: Watch Online @ Movie4u

Last Updated: 2010-01-25 21:53:21 (Update Now)

Torrent added: 2009-08-27 17:51:17





Torrent Files List


Bride Of Re-Animator.nfo (Size: 699.94 MB) (Files: 51)

 Bride Of Re-Animator.nfo

2.08 KB

 Bride Of Re-Animator.part01.rar

14.31 MB

 Bride Of Re-Animator.part02.rar

14.31 MB

 Bride Of Re-Animator.part03.rar

14.31 MB

 Bride Of Re-Animator.part04.rar

14.31 MB

 Bride Of Re-Animator.part05.rar

14.31 MB

 Bride Of Re-Animator.part06.rar

14.31 MB

 Bride Of Re-Animator.part07.rar

14.31 MB

 Bride Of Re-Animator.part08.rar

14.31 MB

 Bride Of Re-Animator.part09.rar

14.31 MB

 Bride Of Re-Animator.part10.rar

14.31 MB

 Bride Of Re-Animator.part11.rar

14.31 MB

 Bride Of Re-Animator.part12.rar

14.31 MB

 Bride Of Re-Animator.part13.rar

14.31 MB

 Bride Of Re-Animator.part14.rar

14.31 MB

 Bride Of Re-Animator.part15.rar

14.31 MB

 Bride Of Re-Animator.part16.rar

14.31 MB

 Bride Of Re-Animator.part17.rar

14.31 MB

 Bride Of Re-Animator.part18.rar

14.31 MB

 Bride Of Re-Animator.part19.rar

14.31 MB

 Bride Of Re-Animator.part20.rar

14.31 MB

 Bride Of Re-Animator.part21.rar

14.31 MB

 Bride Of Re-Animator.part22.rar

14.31 MB

 Bride Of Re-Animator.part23.rar

14.31 MB

 Bride Of Re-Animator.part24.rar

14.31 MB

 Bride Of Re-Animator.part25.rar

14.31 MB

 Bride Of Re-Animator.part26.rar

14.31 MB

 Bride Of Re-Animator.part27.rar

14.31 MB

 Bride Of Re-Animator.part28.rar

14.31 MB

 Bride Of Re-Animator.part29.rar

14.31 MB

 Bride Of Re-Animator.part30.rar

14.31 MB

 Bride Of Re-Animator.part31.rar

14.31 MB

 Bride Of Re-Animator.part32.rar

14.31 MB

 Bride Of Re-Animator.part33.rar

14.31 MB

 Bride Of Re-Animator.part34.rar

14.31 MB

 Bride Of Re-Animator.part35.rar

14.31 MB

 Bride Of Re-Animator.part36.rar

14.31 MB

 Bride Of Re-Animator.part37.rar

14.31 MB

 Bride Of Re-Animator.part38.rar

14.31 MB

 Bride Of Re-Animator.part39.rar

14.31 MB

 Bride Of Re-Animator.part40.rar

14.31 MB

 Bride Of Re-Animator.part41.rar

14.31 MB

 Bride Of Re-Animator.part42.rar

14.31 MB

 Bride Of Re-Animator.part43.rar

14.31 MB

 Bride Of Re-Animator.part44.rar

14.31 MB

 Bride Of Re-Animator.part45.rar

14.31 MB

 Bride Of Re-Animator.part46.rar

14.31 MB

 Bride Of Re-Animator.part47.rar

14.31 MB

 Bride Of Re-Animator.part48.rar

14.31 MB

 Bride Of Re-Animator.part49.rar

13.28 MB

 Bride Of Re-Animator.sfv

5.49 KB
 

Announce URL: http://tracker.ilovetorrents.com/announce.php

Torrent description

General
Complete name : C:\Torrent Creation\Bride of Re-Animator\Bride Of Re-Animator.avi
Format : AVI
Format/Info : Audio Video Interleave
File size : 700 MiB
Duration : 1h 36mn
Overal bit rate : 1011 Kbps
Writing application : VirtualDubMod 1.5.4.1 (build 2178/release)
Writing library : VirtualDubMod build 2178/release
IAS1 : English

Video
Format : MPEG-4 Visual
Format profile : Streaming [email protected]
Format settings, BVOP : Yes
Format settings, QPel : No
Format settings, GMC : No warppoints
Format settings, Matrix : Default
Codec ID : XVID
Codec ID/Hint : XviD
Duration : 1h 36mn
Bit rate : 877 Kbps
Width : 640 pixels
Height : 480 pixels
Display aspect ratio : 4/3
Frame rate : 23.976 fps
Resolution : 8 bits
Colorimetry : 4:2:0
Scan type : Progressive
Bits/(Pixel*Frame) : 0.119
Stream size : 607 MiB
Writing library : XviD 1.0.2 (UTC 2004-08-29)

Audio
Format : MPEG Audio
Format version : Version 1
Format profile : Layer 3
Codec ID : 55
Codec ID/Hint : MP3
Duration : 1h 36mn
Bit rate mode : Variable
Bit rate : 121 Kbps
Nominal bit rate : 128 Kbps
Channel(s) : 2 channels
Sampling rate : 48.0 KHz
Resolution : 16 bits
Stream size : 83.8 MiB
Writing library : LAME3.90.
Encoding settings : ABR


Link: http://www.imdb.com/title/tt0099180/

related torrents

Torrent name

health leech seeds Size
 

comments (0)

Main Menu