Horror

Bride Of Chucky Chucky Gets Lucky][HectoRbusinspector][1337x org]

  • Download 5x Faster
  • Download torrent
  • Direct Download
  • Rate this torrent +  |  -


Torrent info

Name:Bride Of Chucky Chucky Gets Lucky][HectoRbusinspector][1337x org]

Total Size: 700.94 MB

Magnet: Magnet Link

Seeds: 0

Leechers: 0

Stream: Watch Online @ Movie4u

Last Updated: 2017-01-06 11:08:08 (Update Now)

Torrent added: 2009-08-27 17:51:01



VPN For Torrents

Torrent Files List


Movie (Size: 700.94 MB) (Files: 7)

 Movie

  Chucky Gets Lucky.avi

700.80 MB

 Pictures

  034626_ph1_w434_h_q80[1].jpg

61.66 KB

  2283051978_668611f9d2[1].jpg

40.19 KB

  Bride-of-Chucky-Poster-C13040303[1].jpg

26.60 KB

 introduction to us, we are not pirates.txt

4.55 KB

 Chucky.txt

4.12 KB

 tracked_by_h33t_com.txt

0.02 KB
 

tracker

leech seeds
 

Torrent description

For ten years, the tortured soul of serial killer Charles Lee Ray has been imprisoned inside a child’s doll.
“Chucky” is reborn when his old flame, Tiffany rscues his battered doll parts from a police impound.
But Chucky wants his new playmate cut down to size, so he transforms his blushing bride into a stunning little terror.
Chucky and Tiffany can’t wait to start their own homicidal honeymood.
***************************************************************************************************************************************************
***************************************************************************************************************************************************
***************************************************************************************************************************************************

When this demonic duo hits the road and hooks up with a pair of unsuspecting newlyweds, they leave a trail of murder and mayhem behind them.

I found this one to be one of the best Chucky movies, part 3 being the best.
This time he’s not after Andy, but after an amulet from his corpse. This is a great Chucky movie to get started on.
I recommend it to anyone who likes the Child’s Play movies. I give it a 6 out of 10.
***************************************************************************************************************************************************
General
Complete name : Bride Of Chucky Chucky Gets Lucky.avi
Format : AVI
Format/Info : Audio Video Interleave
File size : 701 MiB
Duration : 1h 25mn
Overall bit rate : 1 151 Kbps
Writing application : VirtualDubMod 1.5.4.1 (build 2178/release)
Writing library : VirtualDubMod build 2178/release

Video
ID : 0
Format : MPEG-4 Visual
Format profile : Advanced [email protected]
Format settings, BVOP : Yes
Format settings, QPel : No
Format settings, GMC : No warppoints
Format settings, Matrix : Custom
Codec ID : XVID
Codec ID/Hint : XviD
Duration : 1h 25mn
Bit rate : 1 025 Kbps
Width : 608 pixels
Height : 336 pixels
Display aspect ratio : 16/9
Frame rate : 25.000 fps
Resolution : 24 bits
Colorimetry : 4:2:0
Scan type : Progressive
Bits/(Pixel*Frame) : 0.201
Stream size : 624 MiB (89%)
Writing library : XviD 1.2.1 (UTC 2008-12-04)

Audio
ID : 1
Format : MPEG Audio
Format version : Version 1
Format profile : Layer 3
Codec ID : 55
Codec ID/Hint : MP3
Duration : 1h 25mn
Bit rate mode : Variable
Bit rate : 113 Kbps
Nominal bit rate : 128 Kbps
Channel(s) : 2 channels
Sampling rate : 48.0 KHz
Resolution : 16 bits
Stream size : 68.8 MiB (10%)
Alignment : Aligned on interleaves
Interleave, duration : 24 ms (0.60 video frame)
Interleave, preload duration : 560 ms
Writing library : LAME3.98r
Encoding settings : -m j -V 4 -q 2 -lowpass 17 --abr 128
Language : English

***********************************************************************************************************************************************************

Avi

Art

Info

H33.com

1337x.org

Tell A Friend
************************************************************************************************************************************************************


related torrents

Torrent name

health leech seeds Size
 


comments (0)

Main Menu