Horror

Bram Stoker's Dracula 1992 DVDRip XviD [1992] [

  • Download 5x Faster
  • Download torrent
  • Direct Download
  • Rate this torrent +  |  -
Bram Stoker's Dracula 1992 DVDRip XviD [1992] [

Free and Direct Download with Usenet.nl 300GB+ free


Torrent info

Name:Bram Stoker's Dracula 1992 DVDRip XviD [1992] [

Total Size: 701.07 MB

Magnet: Magnet Link

Seeds: 0

Leechers: 0

Stream: Watch Online @ Movie4u

Last Updated: 0000-00-00 00:00:00 (Update Now)

Torrent added: 2009-08-27 17:49:37





Torrent Files List


Bram Stoker's Dracula.part01.rar (Size: 701.07 MB) (Files: 52)

 Bram Stoker's Dracula.part01.rar

14.31 MB

 Bram Stoker's Dracula.part01.sfv

5.71 KB

 Bram Stoker's Dracula.part02.rar

14.31 MB

 Bram Stoker's Dracula.part03.rar

14.31 MB

 Bram Stoker's Dracula.part04.rar

14.31 MB

 Bram Stoker's Dracula.part05.rar

14.31 MB

 Bram Stoker's Dracula.part06.rar

14.31 MB

 Bram Stoker's Dracula.part07.rar

14.31 MB

 Bram Stoker's Dracula.part08.rar

14.31 MB

 Bram Stoker's Dracula.part09.rar

14.31 MB

 Bram Stoker's Dracula.part10.rar

14.31 MB

 Bram Stoker's Dracula.part11.rar

14.31 MB

 Bram Stoker's Dracula.part12.rar

14.31 MB

 Bram Stoker's Dracula.part13.rar

14.31 MB

 Bram Stoker's Dracula.part14.rar

14.31 MB

 Bram Stoker's Dracula.part15.rar

14.31 MB

 Bram Stoker's Dracula.part16.rar

14.31 MB

 Bram Stoker's Dracula.part17.rar

14.31 MB

 Bram Stoker's Dracula.part18.rar

14.31 MB

 Bram Stoker's Dracula.part19.rar

14.31 MB

 Bram Stoker's Dracula.part20.rar

14.31 MB

 Bram Stoker's Dracula.part21.rar

14.31 MB

 Bram Stoker's Dracula.part22.rar

14.31 MB

 Bram Stoker's Dracula.part23.rar

14.31 MB

 Bram Stoker's Dracula.part24.rar

14.31 MB

 Bram Stoker's Dracula.part25.rar

14.31 MB

 Bram Stoker's Dracula.part26.rar

14.31 MB

 Bram Stoker's Dracula.part27.rar

14.31 MB

 Bram Stoker's Dracula.part28.rar

14.31 MB

 Bram Stoker's Dracula.part29.rar

14.31 MB

 Bram Stoker's Dracula.part30.rar

14.31 MB

 Bram Stoker's Dracula.part31.rar

14.31 MB

 Bram Stoker's Dracula.part32.rar

14.31 MB

 Bram Stoker's Dracula.part33.rar

14.31 MB

 Bram Stoker's Dracula.part34.rar

14.31 MB

 Bram Stoker's Dracula.part35.rar

14.31 MB

 Bram Stoker's Dracula.part36.rar

14.31 MB

 Bram Stoker's Dracula.part37.rar

14.31 MB

 Bram Stoker's Dracula.part38.rar

14.31 MB

 Bram Stoker's Dracula.part39.rar

14.31 MB

 Bram Stoker's Dracula.part40.rar

14.31 MB

 Bram Stoker's Dracula.part41.rar

14.31 MB

 Bram Stoker's Dracula.part42.rar

14.31 MB

 Bram Stoker's Dracula.part43.rar

14.31 MB

 Bram Stoker's Dracula.part44.rar

14.31 MB

 Bram Stoker's Dracula.part45.rar

14.31 MB

 Bram Stoker's Dracula.part46.rar

14.31 MB

 Bram Stoker's Dracula.part47.rar

14.31 MB

 Bram Stoker's Dracula.part48.rar

14.31 MB

 Bram Stoker's Dracula.part49.rar

14.31 MB

 Bram Stoker's Dracula.part50.rar

113.54 KB

 Dracula.nfo

2.04 KB
 

Announce URL:

Torrent description

This version of Dracula is closely based on Bram Stoker's classic novel of the same name. A young lawyer (Jonathan Harker) is assigned to a gloomy village in the mists of eastern Europe. He is captured and imprisoned by the undead vampire Dracula, who travels to London, inspired by a photograph of Harker's betrothed, Mina Murray. In Britain, Dracula begins a reign of seduction and terror, draining the life from Mina's closest friend, Lucy Westenra. Lucy's friends gather together to try to drive Dracula away.


Format : AVI
Format/Info : Audio Video Interleave
File size : 701 MiB
Duration : 2h 2mn
Overall bit rate : 802 Kbps
Writing application : VirtualDubMod 1.5.10.2 (build 2540/release)
Writing library : VirtualDubMod build 2540/release

Video
Format : MPEG-4 Visual
Format profile : Streaming [email protected]
Format settings, BVOP : Yes
Format settings, QPel : No
Format settings, GMC : No warppoints
Format settings, Matrix : Default
Muxing mode : Packed bitstream
Codec ID : DX50
Codec ID/Hint : DivX 5
Duration : 2h 2mn
Bit rate : 664 Kbps
Width : 544 pixels
Height : 304 pixels
Display aspect ratio : 16/9
Frame rate : 25.000 fps
Resolution : 24 bits
Colorimetry : 4:2:0
Scan type : Progressive
Bits/(Pixel*Frame) : 0.161
Stream size : 581 MiB (83%)
Writing library : XviD 1.1.2 (UTC 2006-11-01)

Audio
Format : MPEG Audio
Format version : Version 1
Format profile : Layer 3
Codec ID : 55
Codec ID/Hint : MP3
Duration : 2h 2mn
Bit rate mode : Constant
Bit rate : 128 Kbps
Channel(s) : 2 channels
Sampling rate : 48.0 KHz
Resolution : 16 bits
Stream size : 112 MiB (16%)
Alignment : Aligned on interleaves
Interleave, duration : 40 ms (1.00 video frame)
Interleave, preload duration : 504 ms

Link: http://www.imdb.com/title/tt0103874/

related torrents

Torrent name

health leech seeds Size
 

comments (0)

Main Menu