Horror

BORDERLAND DEWSTRR

  • Download 5x Faster
  • Download torrent
  • Direct Download
  • Rate this torrent +  |  -
BORDERLAND DEWSTRR

Download FREE And Anonymously


Torrent info

Name:BORDERLAND DEWSTRR

Total Size: 1.06 GB

Magnet: Magnet Link

Seeds: 0

Leechers: 0

Stream: Watch Full Movie @ Movie4u

Last Updated: 0000-00-00 00:00:00 (Update Now)

Torrent added: 2009-08-27 17:45:48



VPN For Torrents

Torrent Files List


BL 1.jpg (Size: 1.06 GB) (Files: 14)

 BL 1.jpg

13.26 KB

 BL 1.sfv

1.39 KB

 BL 10.jpg

20.99 KB

 BL 2.jpg

29.93 KB

 BL 3.jpg

21.56 KB

 BL 4.jpg

19.82 KB

 BL 5.jpg

25.20 KB

 BL 6.jpg

13.97 KB

 BL 7.jpg

22.86 KB

 BL 8.jpg

37.53 KB

 BL 9.jpg

14.81 KB

 BORDERLAND.DEWSTRR.divx

1.06 GB

 BORDERLAND.NFO

2.56 KB

 Torrent_downloaded_from_Demonoid.com.txt

0.05 KB
 

Announce URL: http://inferno.demonoid.com:3408/announce

Torrent description

BORDERLAND DVDRIP

Crime | Horror

Three college students, Phil, Ed, and Henry take a road trip into Mexico for a week of drinking and carefree fun only to have Phil find himself a captive of a group of satanic Mexican drug smugglers and human-sacrifice cult

http://www.imdb.com/title/tt0452592/

Format : AVI
Format/Info : Audio Video Interleave
File size : 1.06 GiB
Duration : 1h 45mn
Overall bit rate : 1 438 Kbps

Video
Format : MPEG-4 Visual
Format settings, BVOP : Yes
Format settings, QPel : No
Format settings, GMC : No warppoints
Format settings, Matrix : Default
Codec ID : DX50
Codec ID/Hint : DivX 5
Duration : 1h 45mn
Bit rate : 1 300 Kbps
Width : 720 pixels
Height : 304 pixels
Display aspect ratio : 2.35
Frame rate : 23.976 fps
Resolution : 24 bits
Colorimetry : 4:2:0
Scan type : Progressive
Bits/(Pixel*Frame) : 0.248
Stream size : 981 MiB (90%)
Title : Video
Writing library : DivX 6.8.2 (UTC 2008-05-17)

Audio
Format : MPEG Audio
Format version : Version 1
Format profile : Layer 3
Codec ID : 55
Codec ID/Hint : MP3
Duration : 1h 45mn
Bit rate mode : Constant
Bit rate : 128 Kbps
Channel(s) : 2 channels
Sampling rate : 48.0 KHz
Resolution : 16 bits
Stream size : 96.5 MiB (9%)
Alignment : Split accross interleaves
Interleave, duration : 42 ms (1.00 video frame)
Interleave, preload duration : 500 ms
Title : Audio
Writing library : LAME3.92

General
Complete name : BORDERLAND.DEWSTRR\3-7-2009 5-28-31 PM.sfv
File size : 1.81 KiB

General
Complete name : BORDERLAND.DEWSTRR\Torrent_downloaded_from_Demonoid.com.txt
File size : 47.0 Bytes
BORDERLAND DEWSTRR preview 0
BORDERLAND DEWSTRR preview 1
BORDERLAND DEWSTRR preview 2
BORDERLAND DEWSTRR preview 3
BORDERLAND DEWSTRR preview 4
BORDERLAND DEWSTRR preview 5
BORDERLAND DEWSTRR preview 6
BORDERLAND DEWSTRR preview 7
BORDERLAND DEWSTRR preview 8
BORDERLAND DEWSTRR preview 9
burned with windows [with a couple of other movies on a disk] and played on my philips divx ultra certified dvd player
be sure to set your dvd player on the correct aspect ratio

related torrents

Torrent name

health leech seeds Size
 


comments (0)

Main Menu

 

script data-cfasync="false" src="//d2ghscazvn398x.cloudfront.net/?cshgd=690275">