Thriller

The Objective (2008) 1337x By Noir

  • Download 5x Faster
  • Download torrent
  • Direct Download
  • Rate this torrent +  |  -
The Objective (2008) 1337x By Noir

Anonymous and free Direct Download 300GB+


Torrent info

Name:The Objective (2008) 1337x By Noir

Total Size: 739.91 MB

Magnet: Magnet Link

Seeds: 0

Leechers: 2

Stream: Watch Online @ Movie4u

Last Updated: 2010-12-07 04:07:47 (Update Now)

Torrent added: 2008-08-06 01:27:54



VPN For Torrents

Torrent Files List


1337x.Org.txt (Size: 739.91 MB) (Files: 5)

 1337x.Org.txt

0.03 KB

 Noir.nfo

6.13 KB

 Subs

  The Objective (2008) [1337x] By Noir.idx

91.00 KB

  The Objective (2008) [1337x] By Noir.sub

9.05 MB

 The Objective (2008) [1337x] By Noir.avi

730.76 MB
 

Announce URL: http://genesis.1337x.org:1337/announce

Torrent description

______________________________________________________________
▓▓▓▓▓▓ |
▓█████▓ ▓▓▓▓ |
▓██████▓ ▓▓███▓ |
▓▓██████▓ ▓████▓▓▓▓▓▓ |
██████▓ ▓██▒█▓▓███▓▓ ▓▓▓▓▓▓▓▓▓▓▓▓▓ |
▓██▒████▓ ▓██▒█▓██████▓▓███▓███▓███▓▓ |
▓██▒▒████▓ ▓██▒███▒▒▒▒██▓████████████▓ |
▓██▒▒▒▒███▓ ▓██▒██▒▒▒▒▒▒███▒▒▒██▒█▒▒▒██▓▓ |
▓██▒▒██▒▒██▓▓██▒██▒▒█▒▒▒▒███████▒▒▒▒▒▒██▓ |
▓██▒▒███▒▒██▓██▒██▒█▓█▒▒▒██▒▒▒██▒▒██▒▒▒█▓ |
▓██▒▒████▒▒████▒██▒█▓█▒▒▒██▒▒▒██▒▒███▒██▓ |
▓██▒▒█▓███▒▒███▒██▒▒█▒▒▒▒██▒▒▒██▒▒██████▓ |
▓██▒▒█▓▓███▒▒██▒██▒▒▒▒▒▒▒██▒▒▒██▒▒██▓███▓ |
▓▓██▒▒█▓ ▓███▒▒█▒██▒▒▒▒▒▒▒███████▒▒██▓▓▓▓▓ |
▓▓███▒▒█▓ ▓███▒▒▒███▒▒▒▒▒██▓▓▓▓██▒▒██▓ |
▓████▒▒█▓ ▓███▒▒█████████▓▓ ▓██▒▒██▓ |
▓████▒▒█▓ ▓███▒█▓██████▓▓▓ ▓██████▓ |
▓███████▓ ▓▓████▓▓▓▓▓▓▓▓ ▓▓▓▓▓▓▓▓ |
▓▓▓▓▓▓▓▓▓ ▓▓▓▓▓ |
______________________________________________________________|



************************
* The Objective (2008) *
************************

________________________
General Information |
________________________|
_______________________________________________________________
Type : Movie |
Format : AVI |
Format/Info : Audio Video Interleave |
File size : 731 MiB |
Duration : 1h 26mn |
Subtitles : Finish,Norsk,Svenska |
Source : Dvd Pal |
Genre : Sci-Fi | Thriller | War |
IMDB Link : http://www.imdb.com/title/tt0962711/ |
Rating : 7.0/10 |
_______________________________________________________________|
Video |
Format : AVC |
Format/Info : Advanced Video Codec |
Format profile : [email protected] |
Format settings, CABAC : Yes |
Format settings, ReFrames : 2 frames |
Codec ID : H264 |
Duration : 1h 26mn |
Bit rate : 1045 Kbps |
Width : 608 pixels |
Height : 336 pixels |
Display aspect ratio : 16/9 |
Frame rate : 25.000 fps |
Resolution : 24 bits |
Colorimetry : 4:2:0 |
Scan type : Progressive |
Bits/(Pixel*Frame) : 0.205 |
Stream size : 646 MiB (88%) |
_______________________________________________________________|
Audio |
Format : MPEG Audio |
Format version : Version 1 |
Format profile : Layer 3 |
Codec ID : 55 |
Codec ID/Hint : MP3 |
Duration : 1h 26mn |
Bit rate mode : Constant |
Bit rate : 128 Kbps |
Minimum bit rate : 128 Kbps |
Channel(s) : 2 channels |
Sampling rate : 48.0 KHz |
Resolution : 16 bits |
Stream size : 79.1 MiB (11%) |
Alignment : Aligned on interleaves |
Interleave, duration : 40 ms (1.00 video frame) |
Interleave, preload duration : 504 ms |
Writing library : LAME3.97 |
Encoding settings : CBR |
_______________________________________________________________|
________________
Description |
________________|
_______________________________________________________________
A group of Special Ops Reservists on a mission in the harsh |
and hostile terrain of Afghanistan find themselves lost in a |
Middle Eastern \"Bermuda Triangle\" of ancient evil |
|
_______________________________________________________________|
____________________
Playback Information|
____________________|
_______________________________________________________________
For best playback with my movie you will need an h.264/x264 |
Decoder.My personal favorite is CoreAvc Professional. |
http://www.coreavc.com/ . You can download it with serial |
and application from My site here. |
http://noirsstuff.googlepages.com/home |
You can also use ffdshow for playback as well,VLC media Player,|
And media player classic. |
_______________________________________________________________|
___________________
Post Information |
___________________|
________________________________
Posted by............: Noir |
Posted on............: 8/06/2008|
________________________________|

related torrents

Torrent name

health leech seeds Size
 


comments (0)

Main Menu