Horror

Body Parts (1991) dvdrip [

  • Download 5x Faster
  • Download torrent
  • Direct Download
  • Rate this torrent +  |  -
Body Parts (1991) dvdrip [

Anonymous and Direct Download 300GB+ free


Torrent info

Name:Body Parts (1991) dvdrip [

Total Size: 699.96 MB

Magnet: Magnet Link

Seeds: 0

Leechers: 0

Stream: Watch Online @ Movie4u

Last Updated: 2011-01-09 20:56:30 (Update Now)

Torrent added: 2009-08-27 17:39:21




Torrent Files List


Body Parts.nfo (Size: 699.96 MB) (Files: 51)

 Body Parts.nfo

2.12 KB

 Body Parts.part01.rar

14.31 MB

 Body Parts.part02.rar

14.31 MB

 Body Parts.part03.rar

14.31 MB

 Body Parts.part04.rar

14.31 MB

 Body Parts.part05.rar

14.31 MB

 Body Parts.part06.rar

14.31 MB

 Body Parts.part07.rar

14.31 MB

 Body Parts.part08.rar

14.31 MB

 Body Parts.part09.rar

14.31 MB

 Body Parts.part10.rar

14.31 MB

 Body Parts.part11.rar

14.31 MB

 Body Parts.part12.rar

14.31 MB

 Body Parts.part13.rar

14.31 MB

 Body Parts.part14.rar

14.31 MB

 Body Parts.part15.rar

14.31 MB

 Body Parts.part16.rar

14.31 MB

 Body Parts.part17.rar

14.31 MB

 Body Parts.part18.rar

14.31 MB

 Body Parts.part19.rar

14.31 MB

 Body Parts.part20.rar

14.31 MB

 Body Parts.part21.rar

14.31 MB

 Body Parts.part22.rar

14.31 MB

 Body Parts.part23.rar

14.31 MB

 Body Parts.part24.rar

14.31 MB

 Body Parts.part25.rar

14.31 MB

 Body Parts.part26.rar

14.31 MB

 Body Parts.part27.rar

14.31 MB

 Body Parts.part28.rar

14.31 MB

 Body Parts.part29.rar

14.31 MB

 Body Parts.part30.rar

14.31 MB

 Body Parts.part31.rar

14.31 MB

 Body Parts.part32.rar

14.31 MB

 Body Parts.part33.rar

14.31 MB

 Body Parts.part34.rar

14.31 MB

 Body Parts.part35.rar

14.31 MB

 Body Parts.part36.rar

14.31 MB

 Body Parts.part37.rar

14.31 MB

 Body Parts.part38.rar

14.31 MB

 Body Parts.part39.rar

14.31 MB

 Body Parts.part40.rar

14.31 MB

 Body Parts.part41.rar

14.31 MB

 Body Parts.part42.rar

14.31 MB

 Body Parts.part43.rar

14.31 MB

 Body Parts.part44.rar

14.31 MB

 Body Parts.part45.rar

14.31 MB

 Body Parts.part46.rar

14.31 MB

 Body Parts.part47.rar

14.31 MB

 Body Parts.part48.rar

14.31 MB

 Body Parts.part49.rar

13.31 MB

 Body Parts.sfv

4.51 KB
 

Announce URL: http://tracker.ilovetorrents.com/announce.php

Torrent description

General
Complete name : C:\Torrent Creation\Body Parts\Body Parts.avi
Format : AVI
Format/Info : Audio Video Interleave
File size : 700 MiB
Duration : 1h 28mn
Overal bit rate : 1108 Kbps
Movie name : Body Parts
Director : Pierre Boileau and Thomas Narcejac
Subject : Body Parts
Writing application : Nandub v0.22
Writing library : Nandub build 1377/release
Copyright : Rupert Pupkin
Comment : The transplant was a success. Then the donor came to take it back.

Video
Format : MPEG-4 Visual
Format settings, BVOP : No
Format settings, QPel : Yes
Format settings, GMC : No warppoints
Format settings, Matrix : Default
Codec ID : XVID
Codec ID/Hint : XviD
Duration : 1h 28mn
Bit rate : 1014 Kbps
Width : 640 pixels
Height : 272 pixels
Display aspect ratio : 2.35
Frame rate : 23.976 fps
Resolution : 8 bits
Colorimetry : 4:2:0
Scan type : Progressive
Bits/(Pixel*Frame) : 0.243
Stream size : 641 MiB
Writing library : XviD 0.0.01 (UTC 2002-10-17)

Audio
Format : MPEG Audio
Format version : Version 1
Format profile : Layer 3
Codec ID : 55
Codec ID/Hint : MP3
Duration : 1h 28mn
Bit rate mode : Variable
Bit rate : 81.9 Kbps
Channel(s) : 2 channels
Sampling rate : 44.1 KHz
Resolution : 16 bits
Stream size : 51.7 MiB

Link: http://www.imdb.com/title/tt0101492/

related torrents

Torrent name

health leech seeds Size

Body Parts 1991 avi

0 0 700.20 MB 0
 


comments (0)

Main Menu