Horror

Beyond Re Animator[

  • Download 5x Faster
  • Download torrent
  • Direct Download
  • Rate this torrent +  |  -
Beyond Re Animator[

Anonymous and Free Direct Download 300GB+


Torrent info

Name:Beyond Re Animator[

Total Size: 695.89 MB

Magnet: Magnet Link

Seeds: 0

Leechers: 0

Stream: Watch Online @ Movie4u

Last Updated: 2010-03-30 00:12:26 (Update Now)

Torrent added: 2009-08-27 17:31:19



VPN For Torrents

Torrent Files List


Beyond Re-Animator.nfo (Size: 695.89 MB) (Files: 51)

 Beyond Re-Animator.nfo

1.77 KB

 Beyond Re-Animator.part01.rar

14.31 MB

 Beyond Re-Animator.part02.rar

14.31 MB

 Beyond Re-Animator.part03.rar

14.31 MB

 Beyond Re-Animator.part04.rar

14.31 MB

 Beyond Re-Animator.part05.rar

14.31 MB

 Beyond Re-Animator.part06.rar

14.31 MB

 Beyond Re-Animator.part07.rar

14.31 MB

 Beyond Re-Animator.part08.rar

14.31 MB

 Beyond Re-Animator.part09.rar

14.31 MB

 Beyond Re-Animator.part10.rar

14.31 MB

 Beyond Re-Animator.part11.rar

14.31 MB

 Beyond Re-Animator.part12.rar

14.31 MB

 Beyond Re-Animator.part13.rar

14.31 MB

 Beyond Re-Animator.part14.rar

14.31 MB

 Beyond Re-Animator.part15.rar

14.31 MB

 Beyond Re-Animator.part16.rar

14.31 MB

 Beyond Re-Animator.part17.rar

14.31 MB

 Beyond Re-Animator.part18.rar

14.31 MB

 Beyond Re-Animator.part19.rar

14.31 MB

 Beyond Re-Animator.part20.rar

14.31 MB

 Beyond Re-Animator.part21.rar

14.31 MB

 Beyond Re-Animator.part22.rar

14.31 MB

 Beyond Re-Animator.part23.rar

14.31 MB

 Beyond Re-Animator.part24.rar

14.31 MB

 Beyond Re-Animator.part25.rar

14.31 MB

 Beyond Re-Animator.part26.rar

14.31 MB

 Beyond Re-Animator.part27.rar

14.31 MB

 Beyond Re-Animator.part28.rar

14.31 MB

 Beyond Re-Animator.part29.rar

14.31 MB

 Beyond Re-Animator.part30.rar

14.31 MB

 Beyond Re-Animator.part31.rar

14.31 MB

 Beyond Re-Animator.part32.rar

14.31 MB

 Beyond Re-Animator.part33.rar

14.31 MB

 Beyond Re-Animator.part34.rar

14.31 MB

 Beyond Re-Animator.part35.rar

14.31 MB

 Beyond Re-Animator.part36.rar

14.31 MB

 Beyond Re-Animator.part37.rar

14.31 MB

 Beyond Re-Animator.part38.rar

14.31 MB

 Beyond Re-Animator.part39.rar

14.31 MB

 Beyond Re-Animator.part40.rar

14.31 MB

 Beyond Re-Animator.part41.rar

14.31 MB

 Beyond Re-Animator.part42.rar

14.31 MB

 Beyond Re-Animator.part43.rar

14.31 MB

 Beyond Re-Animator.part44.rar

14.31 MB

 Beyond Re-Animator.part45.rar

14.31 MB

 Beyond Re-Animator.part46.rar

14.31 MB

 Beyond Re-Animator.part47.rar

14.31 MB

 Beyond Re-Animator.part48.rar

14.31 MB

 Beyond Re-Animator.part49.rar

9.24 MB

 Beyond Re-Animator.sfv

5.30 KB
 

Announce URL: http://tracker.ilovetorrents.com/announce.php

Torrent description

General
Complete name : C:\Torrent Creation\Beyond Re-Animator\Beyond Re-Animator.avi
Format : AVI
Format/Info : Audio Video Interleave
File size : 696 MiB
Duration : 1h 36mn
Overal bit rate : 1012 Kbps

Video
Format : MPEG-4 Visual
Format settings, BVOP : Yes
Format settings, QPel : No
Format settings, GMC : No warppoints
Format settings, Matrix : Default
Muxing mode : Packet Bitstream
Codec ID : DX50
Codec ID/Hint : DivX 5
Duration : 1h 36mn
Bit rate : 875 Kbps
Width : 640 pixels
Height : 352 pixels
Display aspect ratio : 16/9
Frame rate : 23.976 fps
Resolution : 8 bits
Colorimetry : 4:2:0
Scan type : Progressive
Bits/(Pixel*Frame) : 0.162
Stream size : 601 MiB
Writing library : DivX 5.1.1 (Maupiti) (UTC 2003-11-19)

Audio
Format : MPEG Audio
Format version : Version 1
Format profile : Layer 3
Codec ID : 55
Codec ID/Hint : MP3
Duration : 1h 36mn
Bit rate mode : Constant
Bit rate : 128 Kbps
Channel(s) : 2 channels
Sampling rate : 44.1 KHz
Resolution : 16 bits
Stream size : 88.0 MiB


Link: http://www.imdb.com/title/tt0222812/

related torrents

Torrent name

health leech seeds Size

Beyond Re Animator (2003)

0 0 695.88 MB 0
 


comments (0)

Main Menu