Horror

BELOW DEWSTRR

  • Download 5x Faster
  • Download torrent
  • Direct Download
  • Rate this torrent +  |  -
BELOW DEWSTRR

Anonymous and Direct Download 300GB+ free


Torrent info

Name:BELOW DEWSTRR

Total Size: 1.09 GB

Magnet: Magnet Link

Seeds: 1

Leechers: 1

Stream: Watch Online @ Movie4u

Last Updated: 2011-01-02 08:50:45 (Update Now)

Torrent added: 2009-08-27 17:30:34




Torrent Files List


BELOW.avi (Size: 1.09 GB) (Files: 15)

 BELOW.avi

1.09 GB

 BELOW.NFO

2.80 KB

 BELOW.sfv

1.50 KB

 BLW 1.jpg

15.44 KB

 BLW 10.jpg

10.91 KB

 BLW 2.jpg

15.36 KB

 BLW 3.jpg

10.84 KB

 BLW 4.jpg

7.39 KB

 BLW 5.jpg

12.99 KB

 BLW 6.jpg

9.41 KB

 BLW 7.jpg

14.06 KB

 BLW 8.jpg

19.64 KB

 BLW 9.jpg

14.35 KB

 BLW CP.jpg

25.31 KB

 Torrent_downloaded_from_Demonoid.com.txt

0.05 KB
 

Announce URL: http://inferno.demonoid.com:3413/announce

Torrent description

BELOW 2002 DVDRIP

In the dark silence of the sea during World War II, the submarine U.S.S. Tiger Shark prowls on what should be a routine rescue mission. But for the shell-shocked crew, trapped together in the sub's narrow corridors and constricted spaces, this is about to become a journey into the sensory delusions, mental deceptions and runaway fear that lurk just below the surface of the ocean and deep inside the human psyche.

Horror | Mystery | Thriller

BELOW DEWSTRR preview 0

http://www.imdb.com/title/tt0276816/

Format : AVI
Format/Info : Audio Video Interleave
File size : 1.09 GiB
Duration : 1h 45mn
Overall bit rate : 1 487 Kbps
Writing application : VirtualDubMod 1.5.4.1 (build 2178/release)
Writing library : VirtualDubMod build 2178/release

Video
Format : MPEG-4 Visual
Format settings, BVOP : Yes
Format settings, QPel : No
Format settings, GMC : No warppoints
Format settings, Matrix : Default
Codec ID : DX50
Codec ID/Hint : DivX 5
Duration : 1h 45mn
Bit rate : 1 033 Kbps
Width : 592 pixels
Height : 336 pixels
Display aspect ratio : 16/9
Frame rate : 23.976 fps
Resolution : 24 bits
Colorimetry : 4:2:0
Scan type : Progressive
Bits/(Pixel*Frame) : 0.217
Stream size : 778 MiB (69%)
Writing library : DivX 2816

Audio
Format : AC-3
Format/Info : Audio Coding 3
Codec ID : 2000
Duration : 1h 45mn
Bit rate mode : Constant
Bit rate : 448 Kbps
Channel(s) : 6 channels
Channel positions : Front: L C R, Surround: L R, LFE
Sampling rate : 48.0 KHz
Stream size : 338 MiB (30%)
Alignment : Split accross interleaves
Interleave, duration : 96 ms (2.30 video frames)
Interleave, preload duration : 96 ms

General
Complete name : DEWSTRR\BELOW.sfv
File size : 1.36 KiB

General
Complete name :DEWSTRR\Torrent_downloaded_from_Demonoid.com.txt
File size : 47.0 Bytes
BELOW DEWSTRR preview 1
BELOW DEWSTRR preview 2
BELOW DEWSTRR preview 3
BELOW DEWSTRR preview 4
BELOW DEWSTRR preview 5
BELOW DEWSTRR preview 6
BELOW DEWSTRR preview 7
BELOW DEWSTRR preview 8
BELOW DEWSTRR preview 9
BELOW DEWSTRR preview 10
burned with windows [with a couple of other movies on a disk] and played on my philips divx ultra certified dvd player
be sure to set your dvd player on the correct aspect ratio

related torrents

Torrent name

health leech seeds Size

THE 13TH WARRIOR DEWSTRR

5 11 1.09 GB 0
 


comments (0)

Main Menu