Horror

Believers 2008 Deutsch DVDrip Xvid [mnvv2 info]

  • Download 5x Faster
  • Download torrent
  • Direct Download
  • Rate this torrent +  |  -
Believers 2008 Deutsch DVDrip Xvid [mnvv2 info]

Free and Direct Download with Usenet 300GB+ free


Torrent info

Name:Believers 2008 Deutsch DVDrip Xvid [mnvv2 info]

Total Size: 699.82 MB

Magnet: Magnet Link

Seeds: 0

Leechers: 0

Stream: Watch Online @ Movie4u

Last Updated: 2010-05-17 09:22:07 (Update Now)

Torrent added: 2009-08-27 17:30:11




Torrent Files List


Believers.German.DVDRiP.XViD (Size: 699.82 MB) (Files: 3)

 Believers.German.DVDRiP.XViD

  Believers.German.DVDRiP.XVid.avi

699.81 MB

 Info.txt

2.96 KB

 t-44321-1.jpg

11.57 KB
 

Announce URL: http://announce.mnvv2.info/announce.php

Torrent description

Believers.2008.Deutsch.DVDrip.Xvid
Believers.German.DVDRiP.XViD

Release Date: 12.10.2008

Part Size: 700 MB
Year..: 2007
Genre.: Horror / Thriller
Laufzeit.: ca.99 Min.

Video Format: XViD (576 x 320)
Video Bitrate..: ca.837 kbps
FPS: 25,000
Audio Format: MP3
Audio Bitrate..: 128 kb/s
Source: Retail DVD


Inhalt

Die beiden Rettungssanitäter David und Victor erhalten einen Notruf aus einer abgelegenen

Gegend. Ein junges Mädchen sagt, ihre Mutter sei ohnmächtig geworden. Doch schon bald dämmert

es ihnen, dass es womöglich ihre eigenen Leben sind, die es zu retten gibt. In eine Falle

gelockt und festgehalten von einem Geheimbund, muss Victor seinen Glauben einer harten Probe

unterziehen, während David versucht, den Häschern zu entkommen In einer Gesellschaft, in der

Glaube an Religion und der Glaube an Wissenschaft ständig gegeneinander ausgespielt werden,

dringt der Film in einen Bereich vor, in dem keine Seite gewinnen kann.

Format : AVI
Format/Info : Audio Video Interleave
Dateigre : 700 MiB
Duration : 1h 38min
Gesamte Bitrate : 996 Kbps
Verwendetes Programm : Nandub v1.0rc2
verwendete Encoder-Bibliothek : Nandub build 1853/release

Video
Format : MPEG-4 Visual
Format profile : Streaming Video@L1
Format settings, BVOP : Ja
Format settings, QPel : Nein
Format settings, GMC : No warpoints
Format settings, Matrix : Custom
Codec ID : XVID
Codec ID/Hint : XviD
Duration : 1h 38min
Bitrate : 849 Kbps
Breite : 576 Pixel
Höhe : 320 Pixel
Bildseitenverhältnis : 16/9
Bildwiederholungsrate : 25.000 FPS
Auflösung : 8 bits
Colorimetry : 4:2:0
Scan type : Progressive
Bits/(Pixel*Frame) : 0.184
Stream size : 597 MiB
verwendete Encoder-Bibliothek : XviD 1.2.0.dev47 (UTC 2006-11-01)

Audio
Format : MPEG Audio
Format version : Version 1
Format profile : Layer 3
Codec ID : 55
Codec ID/Hint : MP3
Duration : 1h 38min
Bitraten-Modus : Variable
Bitrate : 134 Kbps
Minimum bit rate : 144 Kbps
Kanäle : 2 Kanäle
Samplingrate : 48.0 KHz
Auflösung : 16 bits
Stream size : 94.2 MiB
verwendete Encoder-Bibliothek : LAME3.97
Kodierungseinstellungen : ABR

related torrents

Torrent name

health leech seeds Size
 

comments (0)

Main Menu