Horror

Baby Blood [DVDRip] [KooKoo] [h33t]

  • Download 5x Faster
  • Download torrent
  • Direct Download
  • Rate this torrent +  |  -
Baby Blood [DVDRip] [KooKoo] [h33t]

Anonymous and Direct Download 300GB+ free


Torrent info

Name:Baby Blood [DVDRip] [KooKoo] [h33t]

Total Size: 716.63 MB

Magnet: Magnet Link

Seeds: 0

Leechers: 0

Stream: Watch Online @ Movie4u

Last Updated: 2015-06-15 16:22:19 (Update Now)

Torrent added: 2009-08-27 17:20:32




Torrent Files List


Baby Blood [DVDRip] [KooKoo] [h33t].avi (Size: 716.63 MB) (Files: 7)

 Baby Blood [DVDRip] [KooKoo] [h33t].avi

711.72 MB

 cover

  babybloodbig.jpg

43.44 KB

 KooKoo.txt

14.40 KB

 Screenshots

  thumbs20080608190553.jpg.bmp

2.42 MB

 Subtitles

  Baby Blood [DVDRip] [KooKoo] [h33t].idx

34.33 KB

  Baby Blood [DVDRip] [KooKoo] [h33t].sub

2.40 MB

 tracked_by_h33t_com.txt

0.02 KB
 

tracker

leech seeds
 

Torrent description

Baby Blood (1990)
_______________________________________________________________________________________________________________________

Genre: Horror

_______________________________________________________________________________________________________________________
Synopsis:

It is a voracious parasite from the dawn of creation, surviving centuries in search of the one thing it
needs: To be born of a human. But when this cunning creature slithers inside a sexy circus performer
(voluptuous French starlet Emmanuelle Escourrou), it demands gallons of fresh blood to grow stronger.
Now this reluctantly expectant mommy and her chatty mutant fetus are off on a cross- country killing
spree where pre-natal care means violent carnage, horny men make tasty meals, and the ultimate
mother’s milk is Baby Blood!

Throw away those grainy bootlegs and get ready to feel this one kick: Baby Blood - also known as The
Evil Within - is now presented totally uncut and uncensored with all of its infamous womb-raiding,
gore-spewing and flesh-baring beauty fully restored for the first time ever in America!
________________________________________________________________________________________________________________________
IMDB URL: http://www.imdb.com/title/tt0096871/

________________________________________________________________________________________________________________________
DVD source Information:

Starz / Anchor Bay ~ R ~ 84mins. ~ Release Date: 10/10/2006 ~Prod Year: 1989

http://www.dvdempire.com/Exec/v4_item.asp?userid=99366344161132&item_id=1184326&searchID=286161
_________________________________________________________________________________________________________________________


_________________________________________________________________________________________________________________________

File Verified With MediaInfo:
-----------------------------------------------------------------------------------------------------------------------------
General
Complete name: Baby Blood [DVDRip] [KooKoo] [h33t].avi
Format: AVI
Format/Info: Audio Video Interleave
File size: 712 MiB
Duration: 1h 27mn
Overal bit rate: 1135 Kbps
Movie name: Baby Blood
Director: Ripped By KooKoo
Writing application: Lavf51.19.0
Product: DVD_VOLUME

Video
Format: MPEG-4 Visual
Format profile: [email protected]
Format settings, BVOP: No
Format settings, QPel: No
Format settings, GMC: No warppoints
Format settings, Matrix: Default
Codec ID: XVID
Codec ID/Hint: XviD
Duration: 1h 27mn
Bit rate: 996 Kbps
Width: 608 pixels
Height: 336 pixels
Display aspect ratio: 16/9
Frame rate: 23.976 fps
Resolution: 8 bits
Colorimetry: 4:2:0
Scan type: Progressive
Bits/(Pixel*Frame): 0.203
Stream size: 623 MiB
Writing library: XviD 1.1.2 (UTC 2006-11-01)

Audio
Format: MPEG Audio
Format version: Version 1
Format profile: Layer 3
Codec ID: 55
Codec ID/Hint: MP3
Duration: 1h 27mn
Bit rate mode: Constant
Bit rate: 128 Kbps
Channel(s): 2 channels
Sampling rate: 48.0 KHz
Resolution: 16 bits
Stream size: 80.3 MiB
Writing library: LAME3.97



This Film is in English. **Special Note** (Portions of the movie are in French!
This Film is originally from France. Those scenes missing the English Audio have special English
Subtitles. The entire film can be viewed with the other optional English subtitles.)




Ripped by KooKoo, tracked by h33t_com
Come visit me at h33t for more rare movies.

related torrents

Torrent name

health leech seeds Size
 


comments (0)

Main Menu